новый адрес
Ссылка на приватное зеркало всего за 1$. Внимание количество ограничено!!!

iTunes

1+1

iTunes

мы

WEB-DL

1

iTunes

Чернобыль

iTunes

Ральф против интернета

Лицензия

ПШазам

Лицензия

Оно 2

Лицензия

30
pack

Вам бонус

ВАЖНО

!!Акция!!

Alien_RageХит недели

RePack

Resident Evil 21

ИГРА 18+

pack

RePack

jed

!!Акция!!

Alien_Rage

RePack

fifa19

RePack

Assassins Creed: Odyssey

RePack

NEED FOR SPEED™ PAYBACK

3 сезон

9 сезон

Бесстыжие 9 сезон

Все сериалы

все сериалы на PB.wtf

RePack

FAR CRY 5
Ребята, катастрофически не хватает 1900р. для оплаты серверов за Октябрь (всвязи с блокировками трафик упал в 3 раза), 1-2р., выручайте.
  

За пределами / Род человеческий / Extant / Сезон: 1 / Серии 1-13 из 13 (Пэрис Барклай / Paris Barclay, Мэтт Эрл Бисли / Matt Earl Beesley, Аллен Култер / Allen Coulter) [ 2014 , США , фантастика, триллер, драма , WEBDLRip-AVC ]MVO (BaibaKo) pb.wtf

За пределами через торрент pb.wtf

Размер: 7.34 GB | Добавлен: 4 года 3 мес. назад | Торрент скачан:53 раза
Скачать  

11-07-2014 00:31 За пределами Скачать торрент  

За пределами / Род человеческий / Extant«Жизнь всегда найдет способ»
Год выпуска: 2014
Страна: США
Жанр: фантастика, триллер, драма
Продолжительность: ~00:41:07(Серия)
Перевод: Профессиональный (многоголосый, закадровый)(BaibaKo)
Субтитры: Нет
Режиссер: Пэрис Барклай / Paris Barclay, Мэтт Эрл Бисли / Matt Earl Beesley, Аллен Култер / Allen Coulter
Сценарий: Мики Фишер / Mickey Fisher, Лесли Боэм / Leslie Bohem, Гэвин Йохансон / Gavin Johannsen
Продюсер: Питер Око / Peter Ocko, Холли Берри / Halle Berry, Джастин Фалвей / Justin Falvey, Мики Фишер / Mickey Fisher, Дэррил Фрэнк / Darryl Frank
Оператор: М. Дэвид Маллен / M. David Mullen
В ролях:
Брэд Бейер (Harmon Kryger), Холли Берри (Molly Woods), Горан Вишнич (John Woods), Пирс Гэнон (Ethan Woods), Камрин Менхейм (Sam Barton), Тайлер Хилтон (Charlie Arthurs), Серджо Харфорд (Marcus Dawkins), Грэйс Гаммер (Julie Gelineau), Майкл О’Нил (Alan Sparks), Жанетта Арнетт (Anya Sparks), Энни Вершинг (Femi Dodd), Мори Стерлинг (Kern)
Мировая премьера: 9 июля 2014
Описание:
Футуристический триллер о женщине-астронавте, которая возвращается на Землю после космической экспедиции и пытается наладить отношения с семьей, но ее поступки загадочным образом изменяют ход истории всего человечества.
Рейтинг
kinopoisk.ru: 7.650 (62)
imdb.com: 8.20 (170)
Качество: WEBDLRip-AVC
Формат: MPEG-4
Видео кодек: AVC
Аудио кодек: AAC (LC)
Видео: 1536 Кбит/сек, 720*400 (16:9), в 23,976 кадра/сек, AVC
Аудио №1: Русский 192 Кбит/сек, 48,0 КГц, 2 канала, AAC (LC)
Аудио №2: Английский 192 Кбит/сек, 48,0 КГц, 2 канала, AAC (LC) Раздача ведётся путём добавления новых серийДобавлена 13 заключительная серия (19.09.2014)Просьба перекачать торрент файл

Внимание! Раздача ведётся путём добавления новых серий; при каждом добавлении создаётся новый торрент. Чтобы начать докачку новой серии, пользователям необходимо сделать следующее:
(1) остановить скачивание,
(2) удалить старый торрент у себя из клиента (старые серии удалять не надо),
(3) скачать новый торрент и запустить его у себя в клиенте вместо старого, при этом указать клиенту путь в старую папку куда и должно происходить скачивание новых серий.
Ваш клиент при этом должен произвести хеширование (проверку) старой папки (если не производит сам - помогите ему сделать это), и будет докачивать только те серии которых у вас ещё нет. Старые серии при этом не удаляются, а продолжают раздаваться!
Eсли вы уже удалили старые серии, то предотвратить повторную закачку старых серий можно, отжав галочку в соответсвующих местах при запуске нового торрента. По возможности, желательно не удалять старые серии как можно дольше чтобы релизёр не столько продолжал раздавать старые серии, а смог сконцентрироваться на новых.

Общее
Полное имя : H:\ТОРРЕНТЫ\За пределами(Сезон 1)\Extant.s01e01.WEB-DLRip.x264.Rus.Eng.BaibaKo.tv.mp4
Формат : MPEG-4
Профиль формата : Base Media
Идентификатор кодека : isom
Размер файла : 565 Мбайт
Продолжительность : 41 м.
Режим общего битрейта : Переменный
Общий поток : 1920 Кбит/сек
Дата кодирования : UTC 2014-07-10 19:32:10
Дата пометки : UTC 2014-07-10 19:32:10

Видео
Идентификатор : 1
Формат : AVC
Формат/Информация : Advanced Video Codec
Профиль формата : Baseline@L3.0
Параметр CABAC формата : Нет
Параметр ReFrames формата : 3 кадра
Идентификатор кодека : avc1
Идентификатор кодека/Информация : Advanced Video Coding
Продолжительность : 41 м.
Битрейт : 1536 Кбит/сек
Максимальный битрейт : 6817 Кбит/сек
Ширина : 720 пикселей
Высота : 400 пикселей
Соотношение сторон : 16:9
Режим частоты кадров : Переменный
Частота кадров : 23,976 кадра/сек
Минимальная частота кадров : 23,974 кадра/сек
Максимальная частота кадров : 23,981 кадра/сек
Цветовое пространство : YUV
Субдискретизация насыщенности : 4:2:0
Битовая глубина : 8 бит
Тип развёртки : Прогрессивная
Бит/(Пиксели*Кадры) : 0.222
Размер потока : 452 Мбайт (80%)
Библиотека кодирования : x264 core 130 r2273 b3065e6
Настройки программы : cabac=0 / ref=3 / deblock=1:0:0 / analyse=0x1:0x111 / me=hex / subme=7 / psy=1 / psy_rd=1.00:0.00 / mixed_ref=1 / me_range=16 / chroma_me=1 / trellis=1 / 8x8dct=0 / cqm=0 / deadzone=21,11 / fast_pskip=1 / chroma_qp_offset=-2 / threads=12 / lookahead_threads=2 / sliced_threads=0 / nr=0 / decimate=1 / interlaced=0 / bluray_compat=0 / constrained_intra=0 / bframes=0 / weightp=0 / keyint=240 / keyint_min=24 / scenecut=40 / intra_refresh=0 / rc_lookahead=40 / rc=2pass / mbtree=1 / bitrate=1536 / ratetol=1.0 / qcomp=0.60 / qpmin=0 / qpmax=69 / qpstep=4 / cplxblur=20.0 / qblur=0.5 / ip_ratio=1.40 / aq=1:1.00
Дата кодирования : UTC 2014-07-10 08:47:25
Дата пометки : UTC 2014-07-10 19:32:31
Основные цвета : BT.709
Характеристики трансфера : BT.709
Коэффициенты матрицы : BT.709

Аудио #1
Идентификатор : 2
Формат : AAC
Формат/Информация : Advanced Audio Codec
Профиль формата : LC
Идентификатор кодека : 67
Продолжительность : 41 м.
Вид битрейта : Переменный
Битрейт : 192 Кбит/сек
Максимальный битрейт : 196 Кбит/сек
Каналы : 2 канала
Расположение каналов : Front: L R
Частота : 48,0 КГц
Метод сжатия : С потерями
Размер потока : 55,7 Мбайт (10%)
Язык : Russian
Дата кодирования : UTC 2014-07-10 19:32:25
Дата пометки : UTC 2014-07-10 19:32:31

Аудио #2
Идентификатор : 3
Формат : AAC
Формат/Информация : Advanced Audio Codec
Профиль формата : LC
Идентификатор кодека : 67
Продолжительность : 41 м.
Вид битрейта : Переменный
Битрейт : 192 Кбит/сек
Максимальный битрейт : 195 Кбит/сек
Каналы : 2 канала
Расположение каналов : Front: L R
Частота : 48,0 КГц
Метод сжатия : С потерями
Размер потока : 55,7 Мбайт (10%)
Язык : English
Дата кодирования : UTC 2014-07-10 19:32:29
Дата пометки : UTC 2014-07-10 19:32:31

скриншот   скриншот   скриншот   скриншот   скриншот  
pb.wtf



Скачать За пределами через торрент http://pic.kartinco.top/new/img/2014-07/11/z34jm2my4qky50bn2o8rc6lf7.png Скачать фильм За пределами через торрент бесплантно в хорошем качестве Описание:Футуристический триллер о женщине-астронавте, которая возвращается на Землю после космической экспедиции и пытается наладить ... 9.3 10 19
Info! Золотая раздача, скачанное не засчитывается.
Торрент: Зарегистрирован [2015-09-04 10:06] · скачан: 53 раз
Статус: √ проверено
Размер: 7.34 GB
Как cкачать? Как скачать За пределами через торрент | qTorrent

% Раздел Тема Автор DL S | L
Зарубежные сериалы [ 5.62 GB ] Род человеческий / За пределами / Extant / Сезон: 1 / Серии: 1-13 из 13 [2014 научная WEB-DLRip] MVO LostFilm diletant Скачать
1 | 0
Зарубежные сериалы [ 16.06 GB ] За пределами / Род человеческий / Extant / Сезон: 2 / Серии: 1-13 из 13 [2015 WEB-DLRip 720p] MVO 10oN Скачать
1 | 0
Зарубежные сериалы [ 21.91 GB ] За пределами / Род человеческий / Выжившая / Extant / Сезон: 2 / Серии 1-13 из 13 [2015 WEB-DL 1080p] MVO [BaibaKo] GEKADOL Скачать
1 | 0
Зарубежные сериалы [ 6.82 GB ] За пределами / Род человеческий / Выжившая / Extant / Сезон: 2 / Серии 1-13 из 13 [2015 WEB-DLRip] MVO [BaibaKo] GEKADOL Скачать
1 | 0
Зарубежные сериалы [ 18.22 GB ] За пределами / Род человеческий / Выжившая / Extant / Сезон: 2 / Серии 1-13 из 13 [2015 WEB-DL 720p] MVO [BaibaKo] GEKADOL Скачать
1 | 0
Зарубежные сериалы [ 18.35 GB ] За пределами / Род человеческий / Extant / Сезон: 1 / Серии 1-13 из 13 [ 2014 WEB-DL720p]MVO GEKADOL Скачать
1 | 0


Последний раз редактировалось: GEKADOL (2015-09-04 10:05), всего редактировалось 15 раз(а)

28-11-2019 20:33  

Отключить всю рекламу на сайте

11-07-2014 12:26 За пределами Скачать торрент  

...
...
спс!pb.wtf



22-08-2014 01:59 За пределами Скачать торрент  

СПС , НО с раздачей беда :(pb.wtf



23-08-2014 07:14 За пределами Скачать торрент  

скорость падает ужасно когда доходит до половины закачкиpb.wtf



05-09-2014 02:46 За пределами Скачать торрент  

раздача молчитpb.wtf



06-09-2014 02:23 За пределами Скачать торрент  

Jeck2000 писал(а):

раздача молчит

Да она и будет молчать пока скачавшие будут спрыгивать с раздачи!!!!! Хоть на не много оставайтесь на раздаче чтоб другим можно было качать!!!!pb.wtf



19-09-2014 17:12 За пределами Скачать торрент  

раздачаа... *уяча..., стоит смотреть то?????!pb.wtf



04-09-2015 13:58 За пределами Скачать торрент  

Спасибоpb.wtf





Последний раз редактировалось: DeN72 (2015-09-04 17:16), всего редактировалось 1 раз

04-09-2015 15:27 За пределами Скачать торрент  

скорость афигевающаяpb.wtf



    Дорогой пользователь! Огромная просьба, поблагодарите релизера, оцените раздачу и оставьте свои комментарий, если Вы скачали За пределами через торрент бесплатно! Внесите свою лепту в развитие PiratBit!
    Комментировать посты могут только пользователи прошедшие не сложную регистрацию
    Показать сообщения:    

    За пределами через торрент
    Скачать бесплатно За пределами
    За пределами скачать торрент
    За пределами смотреть онлайн
    Cкачать фильм За пределами бесплатно
    За пределами скачать торрент в хорошем качестве
    За пределами смотреть онлайн бесплатно в хорошем качестве


    Вы не можете начинать темы
    Вы не можете отвечать на сообщения
    Вы не можете редактировать свои сообщения
    Вы не можете удалять свои сообщения
    Вы не можете голосовать в опросах
    Вы не можете прикреплять файлы к сообщениям
    Вы можете скачивать файлы