Ссылка на приватное зеркало нашего сайта всего за 1$. Внимание количество ограничено!!!

2 сезон

iTunes

1 сезон

1

2 сезон

2 сезон

iTunes

1 сезон

RePack

30

Ultimate

ВАЖНО

ИГРА 18+

pack

RePack

MK11
pack

Забери бонус

RePack

jed

!!Акция!!

Alien_Rage

RePack

fifa19

RePack

Assassins Creed: Odyssey

RePack

NEED FOR SPEED™ PAYBACK

4 сезон

9 сезон

Бесстыжие 9 сезон

Все сериалы

все сериалы на PB.wtf

RePack

FAR CRY 5
  

Улетное видео по-русски.Новый сезон.(2 Выпуска) [Эфир от 12.07.2014] (Перец) [2014 г., Документальный, DVB] pb.wtf

Улетное видео по-русски.Новый сезон. через торрент pb.wtf

Размер: 1.57 GB | Добавлен: 6 лет 4 мес. назад | Торрент скачан:70 раз
Скачать  

12-07-2014 18:07 Улетное видео по-русски.Новый сезон. Скачать торрент  

Улетное видео по-русски.Новый сезон [Эфир от 12.07.2014] (2 Выпуска)
Год выпуска: 2014
Страна: Россия
Жанр: Документальный
Продолжительность: ~00:25:00

Режиссер: Перец

Описание: Проект представляет собой русскую версию уже идущей в эфире ДТВ программы «Улетное видео». В ней собраны эксклюзивные, случайно снятые материалы со всей России. Сюжеты, которые вошли в программу, сделаны мобильными телефонами, уличными камерами наблюдениями, случайными очевидцами или любым другим техническим средствам, у которого есть функция REC. А главное, в отличие от зарубежной версии, каждый сможет почувствовать себя в центре событий. Ведь теперь велика вероятность, что тот или иной случай произошел именно в вашем городе, на вашей улице, около вашего дома.

Качество: DVB
Формат: MPEG
Видео кодек: MPEG2
Аудио кодек: MPEG Audio
Видео: MPEG 2, 768@720x576 (4:3), 25.000 fps, 4 578 Kbps (0.442 bit/pixel)
Аудио#1: MP2, 48.0 KHz, 1 ch, 128 Kbps, CBR (English)
Релиз от: Deadmauvlad
скриншот   скриншот   скриншот   скриншот   скриншот   скриншот  

Общее
Идентификатор : 1 (0x1)
Полное имя : D:\Рипы выкладка [Deadmauvlad]\Рипы готовые\uletnoe.video.2.Vipuska.DVB.DeadmauvladTV.ts
Формат : MPEG-TS
Размер файла : 1,57 Гбайт
Продолжительность : 45 м.
Режим общего битрейта : Переменный
Общий поток : 4932 Кбит/сек

Видео
Идентификатор : 69 (0x45)
Идентификатор меню : 1 (0x1)
Формат : MPEG Video
Версия формата : Version 2
Профиль формата : Main@Main
Параметр BVOP формата : Да
Параметр матрицы формата : Выборочная
Параметр GOP формата : Variable
Идентификатор кодека : 2
Продолжительность : 45 м.
Вид битрейта : Переменный
Битрейт : 4578 Кбит/сек
Ширина : 720 пикселей
Высота : 576 пикселей
Соотношение сторон : 4:3
Частота кадров : 25,000 кадров/сек
Стандарт вещания : PAL
Цветовое пространство : YUV
Субдискретизация насыщенности : 4:2:0
Битовая глубина : 8 бит
Тип развёртки : Чересстрочная
Порядок развёртки : Верхнее поле первое
Метод сжатия : С потерями
Бит/(Пиксели*Кадры) : 0.442
Временной код первого кадра : 00:00:00:00
Оригинал временного кода : Group of pictures header
Размер потока : 1,45 Гбайт (92%)

Аудио
Идентификатор : 68 (0x44)
Идентификатор меню : 1 (0x1)
Формат : MPEG Audio
Версия формата : Version 1
Профиль формата : Layer 2
Идентификатор кодека : 3
Продолжительность : 45 м.
Вид битрейта : Постоянный
Битрейт : 128 Кбит/сек
Каналы : 1 канал
Частота : 48,0 КГц
Метод сжатия : С потерями
Задержка видео : 9 мс.
Размер потока : 41,7 Мбайт (3%)
Язык : English

pb.wtf



Скачать Улетное видео по-русски.Новый сезон. через торрент http://pic.kartinco.top/images/6/jxfyb.jpg Скачать фильм Улетное видео по-русски.Новый сезон.через торрент бесплантно в хорошем качестве Описание: Проект представляет собой русскую версию уже идущей в эфире ДТВ программы «Улетное видео». В ней собраны эксклюзивные, случайно ... 6.4 10 5
Торрент: Зарегистрирован [2014-07-12 18:07] · скачан: 70 раз
Статус: √ проверено
Размер: 1.57 GB
Как cкачать? Как скачать Улетное видео по-русски.Новый сезон. через торрент | qTorrent

% Раздел Тема Автор DL S | L
Развлекательные телепередачи и шоу, приколы и юмор [ 298 MB ] Улетное видео по-русски.Новый сезон.[Эфир от 16.07.2014] [2014 Документальный SATRip] Se7ven95 Скачать
1 | 0
Информационно-аналитические и общественно-политические передачи [ 770 MB ] Улетное видео по-русски.Новый сезон [Эфир от 11.07.2014] [2014 Документальный DVB] Se7ven95 Скачать
1 | 0

28-11-2019 20:33  

Отключить всю рекламу на сайте

    Дорогой пользователь! Огромная просьба, поблагодарите релизера, оцените раздачу и оставьте свои комментарий, если Вы скачали Улетное видео по-русски.Новый сезон. через торрент бесплатно! Внесите свою лепту в развитие PiratBit!
    Комментировать посты могут только пользователи прошедшие не сложную регистрацию
    Показать сообщения:    

    Улетное видео по-русски.Новый сезон. через торрент
    Скачать бесплатно Улетное видео по-русски.Новый сезон.
    Улетное видео по-русски.Новый сезон. скачать торрент
    Улетное видео по-русски.Новый сезон. смотреть онлайн
    Cкачать фильм Улетное видео по-русски.Новый сезон. бесплатно
    Улетное видео по-русски.Новый сезон. скачать торрент в хорошем качестве
    Улетное видео по-русски.Новый сезон. смотреть онлайн бесплатно в хорошем качестве


    Вы не можете начинать темы
    Вы не можете отвечать на сообщения
    Вы не можете редактировать свои сообщения
    Вы не можете удалять свои сообщения
    Вы не можете голосовать в опросах
    Вы не можете прикреплять файлы к сообщениям
    Вы можете скачивать файлы