Всегда рабочее зеркало без VPN и Proxy просто перед .vidak.icu напиши любое слово или цифру, Пример http://0bqy.vidak.icu

MVO

2 сезон

1 сезон

1

1 сезон

iTunes

2 сезон

13

1 сезон

Deluxe

pack

Рекомендуем

Пиратка

30

ВАЖНО

RePack

MK11

RePack

jed

RePack

fifa19

RePack

RDR2

RePack

NEED FOR SPEED™ PAYBACK

Кинопоиск HD

6 сезон

 Острые козырьки 6 сезон

Все сериалы

все сериалы на PB.wtf

RePack

FAR CRY 5

Anonymous, нам критически не хватает 5601 руб. на оплату серверов и переферии за Апрель, помоги нам пожалуйста, вся надежда только на тебя. В благодарность мы отключим тебе всю рекламу на сайте!

×
  
Magnet ссылка

Александр Розенбаум - Я вижу свет (Андрей Болтенко) [2005 г., Концерт, шансон, DVDRip] pb.wtf

Александр Розенбаум - Я вижу свет через торрент pb.wtf

Размер: 7.75 GB | Добавлен: 7 лет 10 мес. назад | Торрент скачан:14 раз
Смотреть онлайн Александр Розенбаум - Я вижу свет | Скачать    Ребята, помогите собрать деньги на оплату серверов!!!

12-07-2014 21:03 Александр Розенбаум - Я вижу свет Скачать торрент  

Александр Розенбаум - Я вижу свет Год выпуска: 2005
Страна: Россия
Жанр: Концерт, шансон
Продолжительность: 02:52:03
Перевод: Оригинал

Рeжиссер-постановщик: Андрей Болтенко
Оператор-постановщик: Валерий Зиберев

Исполнители: Александр Розенбаум (гитара, вокал), Юрий Капетанаки (клавишные), Николай Резанов (гитара), Вячеслав Литвиненко (гитара), Анатолий Никифоров (бас-гитара), Аркадий Аладьин (ударные), Алексей Дулькевич (скрипка).

Описание: Концерт состоялся в ГЦКЗ г.Москвы 8 и 9 октября 2005 г.
Полная версия с оригинального DVD.
01.Голубица
02.Я вижу свет
03.Налетела грусть
04.Покажите мне Москву
05.Белая ночь
06.Прости...
07.Вовин блюз
08.Осень
09.Песня отрока
10.Возраст
11.Размышление на прогулке
12.Лавочки
13.Вальс-бостон
14.За мной
15.Ну, что произошло?
16.Ночной звонок
17.Дума
18.Вечерняя застольная
19.Одинокий волк
20.Когда я был молодым
21.Если я сумею
22.Грустная история
23.Гаврош
24.Оттепель
25.Хорунжий
26.У окна
27.Зоопарк
28.Глухари
29.Сусуманская Лирическая
30.Чак рок Бэрри
31.Гоп-стоп
32.Ау
33.Аллилуйя
34.Утиная охота
35.Попурри
36.Марш музыкального спецназа
37.Мы живы
Качество: DVDRip
Формат: MPEG
Видео кодек: MPEG2
Аудио кодек: AC3
Видео: MPEG2 720х576, 25.00fps, 9500kbps
Аудио: Dolby AC3, 48000Hz, 6ch, 256kbps
Релиз от: Sibrenok ®





General
Complete name : E:\01 favorit 7\Ya vizhu svet.mpg
Format : MPEG-PS
File size : 7.75 GiB
Duration : 2h 52mn
Overall bit rate mode : Variable
Overall bit rate : 6 448 Kbps
Writing library : (c) 1998-2010 Womble Multimedia, Inc. / MPEG Video Wizard DVD 5.0.0.114 (01/2010) / Nov 13 2010

Video
ID : 224 (0xE0)
Format : MPEG Video
Format version : Version 2
Format profile : Main@Main
Format settings, BVOP : Yes
Format settings, Matrix : Custom
Format settings, GOP : M=3, N=12
Duration : 2h 52mn
Bit rate mode : Variable
Bit rate : 6 064 Kbps
Maximum bit rate : 9 500 Kbps
Width : 720 pixels
Height : 576 pixels
Display aspect ratio : 4:3
Frame rate : 25.000 fps
Standard : PAL
Color space : YUV
Chroma subsampling : 4:2:0
Bit depth : 8 bits
Scan type : Interlaced
Scan order : Top Field First
Compression mode : Lossy
Bits/(Pixel*Frame) : 0.585
Stream size : 7.29 GiB (94%)
Writing library : (c) 1998-2010 Womble Multimedia, Inc. / MPEG Video Wizard DVD 5.0.0.114 (01/2010) / Nov 13 2010

Audio
ID : 189 (0xBD)-128 (0x80)
Format : AC-3
Format/Info : Audio Coding 3
Mode extension : CM (complete main)
Muxing mode : DVD-Video
Duration : 2h 52mn
Bit rate mode : Constant
Bit rate : 256 Kbps
Channel(s) : 2 channels
Channel positions : Front: L R
Sampling rate : 48.0 KHz
Bit depth : 16 bits
Compression mode : Lossy
Delay relative to video : -80ms
Stream size : 315 MiB (4%)

Menu

pb.wtf



Скачать Александр Розенбаум - Я вижу свет через торрент https://pic1.kartinco.top/images/61/zyfth.jpg Скачать, смотреть онлайн Александр Розенбаум - Я вижу свет бесплантно в хорошем качестве Описание: Концерт состоялся в ГЦКЗ г.Москвы 8 и 9 октября 2005 г.Полная с оригинального DVD.ГолубицаЯ вижу светНалетела ... 10 10 4
Info! Золотая раздача, скачанное не засчитывается.
Торрент: Зарегистрирован [2014-07-12 21:03] · скачан: 14 раз
Статус: √ проверено
Размер: 7.75 GB
Как cкачать? Как скачать Александр Розенбаум - Я вижу свет через торрент | UTorrent

28-11-2019 20:33  

Отключить всю рекламу на сайте

    Дорогой пользователь! Огромная просьба, поблагодарите релизера, оцените раздачу и оставьте свои комментарий, если Вы скачали Александр Розенбаум - Я вижу свет через торрент бесплатно!
    Комментировать посты могут только пользователи прошедшие не сложную регистрацию
    Показать сообщения:    

    Александр Розенбаум - Я вижу свет через торрент
    Скачать бесплатно Александр Розенбаум - Я вижу свет
    Александр Розенбаум - Я вижу свет скачать торрент
    Александр Розенбаум - Я вижу свет смотреть онлайн
    Cкачать фильм Александр Розенбаум - Я вижу свет бесплатно
    Александр Розенбаум - Я вижу свет скачать торрент в хорошем качестве
    Александр Розенбаум - Я вижу свет смотреть онлайн бесплатно в хорошем качестве


    Вы не можете начинать темы
    Вы не можете отвечать на сообщения
    Вы не можете редактировать свои сообщения
    Вы не можете удалять свои сообщения
    Вы не можете голосовать в опросах
    Вы не можете прикреплять файлы к сообщениям
    Вы можете скачивать файлы