Ссылка на приватное зеркало нашего сайта всего за 1$. Внимание количество ограничено!!!

2 сезон

iTunes

1 сезон

1

2 сезон

2 сезон

iTunes

1 сезон

RePack

30

Новинка

ВАЖНО

ИГРА 18+

pack

RePack

MK11
pack

Забери бонус

RePack

jed

!!Акция!!

Alien_Rage

RePack

fifa19

RePack

Assassins Creed: Odyssey

RePack

NEED FOR SPEED™ PAYBACK

4 сезон

9 сезон

Бесстыжие 9 сезон

Все сериалы

все сериалы на PB.wtf

RePack

FAR CRY 5
  

Мост / The Bridge / Сезон: 2 / Серии 1-13 из 13 (Алекс Закржевский / Alex Zakrzewski, Херардо Наранхо / Gerardo Naranjo, Шарлотта Зилинг / Charlotte Sieling) [ 2014 , США , триллер, драма, криминал , WEB-DL720p ] MVO (LostFilm) pb.wtf

Мост через торрент pb.wtf

Размер: 17.04 GB | Добавлен: 6 лет 1 мес. назад | Торрент скачан:13 раз
Скачать  

13-07-2014 03:11 Мост Скачать торрент  

Мост / The Bridge"Every body is connected"
Год выпуска: 2014
Страна: США
Жанр: триллер, драма, криминал, детектив
Продолжительность: ~00:50:44(Серия)
Перевод: Профессиональный (многоголосый, закадровый)(LostFilm)
Субтитры: Нет
Режиссер: Алекс Закржевский / Alex Zakrzewski, Херардо Наранхо / Gerardo Naranjo, Шарлотта Зилинг / Charlotte Sieling
Сценарий: Элвуд Рейд / Elwood Reid, Крис Джеролмо / Chris Gerolmo, Монс Морлинд / Måns Mårlind, Ганс Розенфельдт / Hans Rosenfeldt, Бьёрн Стейн / Björn Stein
Продюсер: Патрик Марки / Patrick Markey, Эста Спэлдинг / Esta Spalding, Хиллари Шварц / Hillary Schwartz, Джек Клементс / Jack Clements, Эрин Митчелл / Erin Mitchell
Оператор: Аттила Сзэлэй / Attila Szalay, Дэвид Франко / David Franco
Композитор: Шон Пирс / Shawn Pierce
В ролях:
Дайан Крюгер (Sonya Cross), Демиан Бишир (Marco Ruiz), Тед Левайн (Lieutenant Hank Wade), Аннабет Гиш (Charlotte Millwright), Томас М. Райт (Steven Linder), Мэттью Лиллард (Daniel Frye), Эрик Ланж (Kenneth Hastings), Эмили Риос (Adriana Mendez), Джейк Олстон (Detective Tim Cooper), Каталина Сандино Морено (Alma Ruiz), Карлос Праттс (Gus Ruiz), Диана-Мария Рива (Kitty Conchas)
Мировая премьера: 10 июля 2013
Описание:
Прямо на межевой линии между США и Мексикой обнаружено тело женщины. Когда полицейские пытаются поднять труп, оказывается, что он разделен на две части — по половине на каждой стороне границы. Поэтому за расследование берутся представители обоих государств. Со стороны США — это Соня Кросс (Дайан Крюгер), страдающая синдромом Аспергера, со стороны Мексики — Марко Руис (Демиан Бишир). У каждого из них свой подход к расследованию, поэтому обоим придется как-то уживаться друг с другом. В ходе расследования выясняется, что найденные тела могут быть связаны с другими убийствами, которые происходили на протяжении длительного времени. Когда на связь с полицией выходит сам преступник, выясняется, что все его преступления хорошо спланированы и содержат «послания» обществу о том, что в США и Мексике не все граждане равны перед законом. Несмотря на такие заявления, в основе его действий лежит мотив личной мести…
Рейтинг
kinopoisk.ru: 6.967 (1166)
imdb.com: 7.70 (9808)
Качество: WEB-DL720p
Формат: MPEG-4
Видео кодек: AVC
Аудио кодек: AAC (LC)
Видео: 4000 Кбит/сек, 1280*720 (16:9), в 23,976 кадра/сек, AVC
Аудио: 128 Кбит/сек, 48,0 КГц, 2 канала, AAC (LC) Раздача ведётся путём добавления новых серийДобавлена 13 серия (05.10.2014)Просьба перекачать торрент файл

Внимание! Раздача ведётся путём добавления новых серий; при каждом добавлении создаётся новый торрент. Чтобы начать докачку новой серии, пользователям необходимо сделать следующее:
(1) остановить скачивание,
(2) удалить старый торрент у себя из клиента (старые серии удалять не надо),
(3) скачать новый торрент и запустить его у себя в клиенте вместо старого, при этом указать клиенту путь в старую папку куда и должно происходить скачивание новых серий.
Ваш клиент при этом должен произвести хеширование (проверку) старой папки (если не производит сам - помогите ему сделать это), и будет докачивать только те серии которых у вас ещё нет. Старые серии при этом не удаляются, а продолжают раздаваться!
Eсли вы уже удалили старые серии, то предотвратить повторную закачку старых серий можно, отжав галочку в соответсвующих местах при запуске нового торрента. По возможности, желательно не удалять старые серии как можно дольше чтобы релизёр не столько продолжал раздавать старые серии, а смог сконцентрироваться на новых.

Общее
Полное имя : H:\ТОРРЕНТЫ\Мост(Сезон 2)720\The.Bridge.S02E01.720p.WEB.rus.LostFilm.TV.mp4
Формат : MPEG-4
Профиль формата : Base Media
Идентификатор кодека : isom
Размер файла : 1,44 Гбайт
Продолжительность : 50 м.
Режим общего битрейта : Переменный
Общий поток : 4067 Кбит/сек
Коллекция : Мост
Сезон : 2
Альбом : Мост, Сезон 2
Альбом/Исполнитель : Мост
Часть : 1
Часть/Положение : 2
Трек : Янки
Трек/Положение : 1
Исполнитель : Мост
Жанр : Drama
Тип содержимого : TV Show
Дата записи : 2014
Дата кодирования : UTC 2014-07-11 17:21:00
Дата пометки : UTC 2014-07-11 17:21:00
Программа кодирования : Yamb 2.1.0.0 [http://yamb.unite-video.com] / LostCoder
Правообладатель : LostFilm.TV (c)
Обложка : Yes
Примечание : Прямо на межевой линии между США и Мексикой обнаружено тело женщины. Когда полицейские пытаются поднять труп, оказывается, что он разделен на две части - по половине на каждой стороне границы. За расследование берутся представители обоих государств.
Part_ID : 201

Видео
Идентификатор : 1
Формат : AVC
Формат/Информация : Advanced Video Codec
Профиль формата : High@L3.1
Параметр CABAC формата : Нет
Параметр ReFrames формата : 2 кадра
Идентификатор кодека : avc1
Идентификатор кодека/Информация : Advanced Video Coding
Продолжительность : 50 м.
Битрейт : 4000 Кбит/сек
Максимальный битрейт : 13,1 Мбит/сек
Ширина : 1280 пикселей
Высота : 720 пикселей
Соотношение сторон : 16:9
Режим частоты кадров : Переменный
Частота кадров : 23,976 кадра/сек
Минимальная частота кадров : 23,974 кадра/сек
Максимальная частота кадров : 23,981 кадра/сек
Цветовое пространство : YUV
Субдискретизация насыщенности : 4:2:0
Битовая глубина : 8 бит
Тип развёртки : Прогрессивная
Бит/(Пиксели*Кадры) : 0.181
Размер потока : 1,39 Гбайт (97%)
Библиотека кодирования : x264 core 112 r1834 a51816a
Настройки программы : cabac=0 / ref=3 / deblock=1:0:0 / analyse=0x1:0x111 / me=hex / subme=7 / psy=1 / psy_rd=1.00:0.00 / mixed_ref=1 / me_range=16 / chroma_me=1 / trellis=1 / 8x8dct=0 / cqm=0 / deadzone=21,11 / fast_pskip=1 / chroma_qp_offset=-2 / threads=6 / sliced_threads=0 / nr=0 / decimate=1 / interlaced=0 / constrained_intra=0 / bframes=3 / b_pyramid=2 / b_adapt=1 / b_bias=0 / direct=1 / weightb=1 / open_gop=0 / weightp=2 / keyint=250 / keyint_min=25 / scenecut=40 / intra_refresh=0 / rc_lookahead=40 / rc=abr / mbtree=1 / bitrate=4000 / ratetol=1.0 / qcomp=0.60 / qpmin=0 / qpmax=51 / qpstep=4 / vbv_maxrate=5000 / vbv_bufsize=2000 / ip_ratio=1.40 / aq=1:1.00 / nal_hrd=none
Язык : English
Дата пометки : UTC 2014-07-11 17:22:59
Основные цвета : BT.709
Характеристики трансфера : BT.709
Коэффициенты матрицы : BT.709

Аудио
Идентификатор : 2
Формат : AAC
Формат/Информация : Advanced Audio Codec
Профиль формата : LC
Идентификатор кодека : 40
Продолжительность : 50 м.
Вид битрейта : Переменный
Битрейт : 128 Кбит/сек
Максимальный битрейт : 229 Кбит/сек
Каналы : 2 канала
Расположение каналов : Front: L R
Частота : 48,0 КГц
Метод сжатия : С потерями
Размер потока : 46,4 Мбайт (3%)
Дата кодирования : UTC 2014-07-11 17:22:53
Дата пометки : UTC 2014-07-11 17:22:59

скриншот   скриншот   скриншот   скриншот   скриншот  
pb.wtf



Скачать Мост через торрент http://pic.kartinco.top/new/img/2014-07/13/5mt0tlhyx4zpdo5mqpoweidf2.jpg Скачать фильм Мост через торрент бесплантно в хорошем качестве Описание:Прямо на межевой линии между США и Мексикой обнаружено тело женщины. Когда полицейские пытаются поднять труп, оказывается, что он ... 8.4 10 11
Info! Золотая раздача, скачанное не засчитывается.
Торрент: Зарегистрирован [2014-10-05 01:58] · скачан: 13 раз
Статус: √ проверено
Размер: 17.04 GB
Как cкачать? Как скачать Мост через торрент | qTorrent

% Раздел Тема Автор DL S | L
Зарубежные сериалы [ 7.34 GB ] Мост / The Bridge / Сезон: 2 / Серии 1-13 из 13 [2014 WEB-DLRip] MVO [FOX] GEKADOL Скачать
1 | 0
Зарубежные сериалы [ 6.29 GB ] Мост / Bron / Broen / The Bridge / Сезон 2 / Серии 1-10 из 10 / [2013 HDTVRip] [BaibaKo] mailman13 Скачать
1 | 0
Зарубежные сериалы [ 6.27 GB ] Мост / The Bridge / Сезон: 2 / Серии 1-13 из 13 [ 2014 WEB-DLRip ] MVO GEKADOL Скачать
1 | 0

28-11-2019 20:33  

Отключить всю рекламу на сайте

17-11-2017 20:27 Мост Скачать торрент  

Данная версия сериала имхо гораздо лучше датской.
Здесь актеры действительно играют на площадке.pb.wtf



    Дорогой пользователь! Огромная просьба, поблагодарите релизера, оцените раздачу и оставьте свои комментарий, если Вы скачали Мост через торрент бесплатно! Внесите свою лепту в развитие PiratBit!
    Комментировать посты могут только пользователи прошедшие не сложную регистрацию
    Показать сообщения:    

    Мост через торрент
    Скачать бесплатно Мост
    Мост скачать торрент
    Мост смотреть онлайн
    Cкачать фильм Мост бесплатно
    Мост скачать торрент в хорошем качестве
    Мост смотреть онлайн бесплатно в хорошем качестве


    Вы не можете начинать темы
    Вы не можете отвечать на сообщения
    Вы не можете редактировать свои сообщения
    Вы не можете удалять свои сообщения
    Вы не можете голосовать в опросах
    Вы не можете прикреплять файлы к сообщениям
    Вы можете скачивать файлы