Ссылка на приватное зеркало нашего сайта всего за 1$. Внимание количество ограничено!!!

2 сезон

iTunes

1 сезон

1

iTunes

iTunes

iTunes

1 сезон

RePack

30

ИГРА 18+

pack

ВАЖНО

!!Акция!!

Alien_RageХит недели

RePack

MK11
pack

Забери бонус

RePack

jed

!!Акция!!

Alien_Rage

RePack

fifa19

RePack

Assassins Creed: Odyssey

RePack

NEED FOR SPEED™ PAYBACK

4 сезон

9 сезон

Бесстыжие 9 сезон

Все сериалы

все сериалы на PB.wtf

RePack

FAR CRY 5
  

Новые Мстители 2 / Ultimate Avengers 2 (Уилл Меньот, Дик Сэбаст, Боб Ричардсон) [2006 г., Фантастика Боевик Приключения, DVDRip, Профессиональный многоголосый] pb.wtf

Новые Мстители 2 через торрент pb.wtf

Размер: 1.46 GB | Добавлен: 6 лет 3 мес. назад | Торрент скачан:228 раз
Скачать  

13-07-2014 17:44 Новые Мстители 2 Скачать торрент  

Новые Мстители 2 / Ultimate Avengers 2
Год выпуска: 2006
Страна: США
Жанр: Фантастика Боевик Приключения
Продолжительность: 01:12:00
Перевод: Профессиональный многоголосый
Субтитры: Отд.файл [русские]

Режиссер: Уилл Меньот, Дик Сэбаст, Боб Ричардсон
Продюссер: Боб Ричардсон, Ави Арад, Рон Хохаузер
Сценарий: Брайан Хитч, Грег Джонсон, Джек Кирби

Бюджет: $4 899 835




В ролях: Джастин Гросс, Нэн МакНамара, Андре Уэр

Описание: Команда супергероев «Капитана Америка» отправляется в Африку, где был вероломно убит король одного из древних племен. Теперь смертельная опасность угрожает его сыну — Черной Пантере. Именно ему предстоит унаследовать трон и сверхъестественные способности отца. Генерал Кляйзер, желая обрести мировое господство, стремится завладеть могучим артефактом, который мужественно защищает племя Пантеры. Но выстоять против могучей армии Кляйзера практически невозможно... Только с помощью знаменитых героев комиксов Марвел у Черной Пантеры есть шанс спасти мир от катастрофы.

Качество: DVDRip
Формат: AVI
Видео кодек: XviD
Аудио кодек: AC3
Видео: MPEG4, XviD, 720x400 (16:9), 23.976 fps, 2 222 Kbps (0.322 bit/pixel)
Аудио#1: AC-3, 48.0 KHz, 2 ch, 192 Kbps, CBR[русский]
Аудио#2: AC-3, 48.0 KHz, 6 ch, 448 Kbps, CBR[английский]
скриншот   скриншот   скриншот  

Общее
Полное имя : \\Rt-n14u\elements\Download2\Complete\Ultimate_Avengers_2\Ultimate_Avengers_2.avi
Формат : AVI
Формат/Информация : Audio Video Interleave
Размер файла : 1,46 Гбайт
Продолжительность : 1 ч. 12 м.
Общий поток : 2876 Кбит/сек
Программа кодирования : VirtualDubMod 1.5.10.2 (build 2540/release)
Библиотека кодирования : VirtualDubMod build 2540/release

Видео
Идентификатор : 0
Формат : MPEG-4 Visual
Профиль формата : Advanced Simple@L5
Параметр BVOP формата : 1
Параметр QPel формата : Нет
Параметр GMC формата : Без точки перехода
Параметр матрицы формата : Выборочная
Идентификатор кодека : XVID
Идентификатор кодека/Подсказка : XviD
Продолжительность : 1 ч. 12 м.
Битрейт : 2222 Кбит/сек
Ширина : 720 пикселей
Высота : 400 пикселей
Соотношение сторон : 16:9
Частота кадров : 23,976 кадра/сек
Цветовое пространство : YUV
Субдискретизация насыщенности : 4:2:0
Битовая глубина : 8 бит
Тип развёртки : Прогрессивная
Метод сжатия : С потерями
Бит/(Пиксели*Кадры) : 0.322
Размер потока : 1,13 Гбайт (77%)
Библиотека кодирования : XviD 63

Аудио #1
Идентификатор : 1
Формат : AC-3
Формат/Информация : Audio Coding 3
Расширение режима : CM (complete main)
Параметр Endianness формата : Big
Идентификатор кодека : 2000
Продолжительность : 1 ч. 12 м.
Вид битрейта : Постоянный
Битрейт : 192 Кбит/сек
Каналы : 2 канала
Расположение каналов : Front: L R
Частота : 48,0 КГц
Битовая глубина : 16 бит
Метод сжатия : С потерями
Размер потока : 100,0 Мбайт (7%)
Выравнивание : Разделение по промежуткам
Продолжительность промежутка : 42 мс. (1,00 видеокадр)
Время предзагрузки промежутка : 500 мс.

Аудио #2
Идентификатор : 2
Формат : AC-3
Формат/Информация : Audio Coding 3
Расширение режима : CM (complete main)
Параметр Endianness формата : Big
Идентификатор кодека : 2000
Продолжительность : 1 ч. 12 м.
Вид битрейта : Постоянный
Битрейт : 448 Кбит/сек
Каналы : 6 каналов
Расположение каналов : Front: L C R, Side: L R, LFE
Частота : 48,0 КГц
Битовая глубина : 16 бит
Метод сжатия : С потерями
Размер потока : 233 Мбайт (16%)
Выравнивание : Разделение по промежуткам
Продолжительность промежутка : 42 мс. (1,00 видеокадр)
Время предзагрузки промежутка : 500 мс.

Общее
Полное имя : \\Rt-n14u\elements\Download2\Complete\Ultimate_Avengers_2\Ultimate_Avengers_2.srt
Формат : SubRip
Размер файла : 64,2 Кбайт

Текст
Формат : SubRip
Метод сжатия : Без потерь

Скорость отдачи небольшая, Don’t Panicpb.wtf



Скачать Новые Мстители 2 через торрент http://pic.kartinco.top/images/6/5qptv.jpg Скачать фильм Новые Мстители 2 через торрент бесплантно в хорошем качестве Описание: Команда супергероев «Капитана Америка» отправляется в Африку, где был вероломно убит король одного из древних племен. Теперь ... 10 10 15
Торрент: Зарегистрирован [2014-07-13 17:44] · скачан: 228 раз
Статус: √ проверено
Размер: 1.46 GB
Как cкачать? Как скачать Новые Мстители 2 через торрент | qTorrent

28-11-2019 20:33  

Отключить всю рекламу на сайте

    Дорогой пользователь! Огромная просьба, поблагодарите релизера, оцените раздачу и оставьте свои комментарий, если Вы скачали Новые Мстители 2 через торрент бесплатно! Внесите свою лепту в развитие PiratBit!
    Комментировать посты могут только пользователи прошедшие не сложную регистрацию
    Показать сообщения:    

    Новые Мстители 2 через торрент
    Скачать бесплатно Новые Мстители 2
    Новые Мстители 2 скачать торрент
    Новые Мстители 2 смотреть онлайн
    Cкачать фильм Новые Мстители 2 бесплатно
    Новые Мстители 2 скачать торрент в хорошем качестве
    Новые Мстители 2 смотреть онлайн бесплатно в хорошем качестве


    Вы не можете начинать темы
    Вы не можете отвечать на сообщения
    Вы не можете редактировать свои сообщения
    Вы не можете удалять свои сообщения
    Вы не можете голосовать в опросах
    Вы не можете прикреплять файлы к сообщениям
    Вы можете скачивать файлы