2 сезон

iTunes

MVO

1

2 сезон

iTunes

iTunes

1 сезон

RePack

30

Ultimate

ВАЖНО

ИГРА 18+

pack

RePack

MK11
pack

Легкие деньги

RePack

jed

RePack

fifa19

RePack

RDR2

RePack

NEED FOR SPEED™ PAYBACK

4 сезон

9 сезон

Бесстыжие 9 сезон

Все сериалы

все сериалы на PB.wtf

RePack

FAR CRY 5

Anonymous, доброй ночи, мы не успеваем собрать деньги на оплату серверов за декабрь и январь, помогите нам пожалуйста в это трудное время. В качестве благодарности мы отключим Вам всю рекламу на сайте (укажите свой ник в строку Ваше имя)!

×
  
Magnet ссылка

Смерть в сети / The Den (Захари Донохью) [2013, ужасы, триллер, WEB-DLRip, Дубляж , Лицензия ] pb.wtf

Смерть в сети через торрент pb.wtf

Размер: 739 MB | Добавлен: 6 лет 6 мес. назад | Торрент скачан:333 раза
Скачать  

14-07-2014 04:11 Смерть в сети Скачать торрент  


Смерть в сети / The Den

«А что если вы увидите...»
Год выпуска:
2014
Страна:
США
Жанр: драма, криминал
Продолжительность: ~ 01:12:13
Перевод:Профессиональный Дублированное [лицензия]

Режиссёр: Захари Донохью
В ролях: Мелани Папалиа, Дэвид Шлачтенхауфен, Мэтт Риди, Адам Шапиро, Брайан Белл, Рон Боттитта, Кирк Бовилл, Тристиан Чейз, Сайда Аррика Экулона, Гарретт Форнандер
Описание: Молодая женщина изучает привычки пользователей чата с использованием веб-камеры и невольно становится свидетелем жестокого убийства…




Качество: WEB-DLRip
Формат: AVI
Видео кодек: XvID
Аудио кодек: MP3
Видео: 624x336 (1.86:1), 23.976 fps, XviD build 73 ~1200 kbps avg, 0.24 bit/pixel
Аудио: 48 kHz, MPEG Layer 3, 2 ch, ~128.00 kbps avg

Рип Deadmauvlad
Общее
Полное имя : D:Рипы выкладка [Deadmauvlad]Рипы готовыеThe.Den.2013.WEB-DLRip.Deadmauvlad.D.Rus.avi
Формат : AVI
Формат/Информация : Audio Video Interleave
Размер файла : 739 Мбайт
Продолжительность : 1 ч. 16 м.
Общий поток : 1346 Кбит/сек
Название фильма : The.Den.2013.WEB-DLRip.Deadmauvlad.D.Rus
Режиссёр : Deadmauvlad
Жанр : Ужасы, Триллер , Драма
Программа кодирования : VirtualDubMod 1.5.10.3 | www.virtualdub-fr.org || (build 2550/release)
Формат оригинала/Имя : Фильм
Правообладатель : Goldenshara
Примечание : Лицензия

Видео
Идентификатор : 0
Формат : MPEG-4 Visual
Профиль формата : Advanced Simple@L5
Параметр BVOP формата : 1
Параметр QPel формата : Нет
Параметр GMC формата : Без точки перехода
Параметр матрицы формата : Выборочная
Идентификатор кодека : XVID
Идентификатор кодека/Подсказка : XviD
Продолжительность : 1 ч. 16 м.
Битрейт : 1208 Кбит/сек
Ширина : 624 пикселя
Высота : 336 пикселей
Соотношение сторон : 1,85:1
Частота кадров : 23,976 кадра/сек
Цветовое пространство : YUV
Субдискретизация насыщенности : 4:2:0
Битовая глубина : 8 бит
Тип развёртки : Прогрессивная
Метод сжатия : С потерями
Бит/(Пиксели*Кадры) : 0.240
Размер потока : 664 Мбайт (90%)
Библиотека кодирования : XviD 73

Аудио
Идентификатор : 1
Формат : MPEG Audio
Версия формата : Version 1
Профиль формата : Layer 3
Идентификатор кодека : 55
Идентификатор кодека/Подсказка : MP3
Продолжительность : 1 ч. 16 м.
Вид битрейта : Постоянный
Битрейт : 128 Кбит/сек
Каналы : 2 канала
Частота : 48,0 КГц
Метод сжатия : С потерями
Размер потока : 70,3 Мбайт (10%)
Выравнивание : Соединение по промежуткам
Продолжительность промежутка : 42 мс. (1,00 видеокадр)
Время предзагрузки промежутка : 504 мс.
Библиотека кодирования : LAME3.99r
Настройки программы : -m s -V 4 -q 2 -lowpass 17 -b 128
скриншот   скриншот   скриншот   скриншот   скриншот   скриншот   скриншот   скриншот   скриншот   скриншот   скриншот   скриншот  
pb.wtf



Скачать Смерть в сети через торрент http://6.firepic.org/6/images/2014-05/09/tyzc6bxflgy0.jpg Скачать фильм Смерть в сети через торрент бесплантно в хорошем качестве Описание: Молодая женщина изучает привычки пользователей чата с использованием веб-камеры и невольно становится свидетелем жестокого ... 8.9 10 8
Торрент: Зарегистрирован [2014-07-14 04:11] · скачан: 333 раз
Статус: √ проверено
Размер: 739 MB
Как cкачать? Как скачать Смерть в сети через торрент | UTorrent

% Раздел Тема Автор DL S | L
Фильмы 2013 [DVDrip, WEB-DLRip, HDrip] [ 1.37 GB ] Смерть в сети / The Den [ 2013 WEB-DLRip ]DUB GEKADOL Скачать
1 | 0

28-11-2019 20:33  

Отключить всю рекламу на сайте

14-07-2014 05:21 Смерть в сети Скачать торрент  

Мелани Папалиа, Дэвид Шлачтенхауфен rofl
Дал же бог фамилии...pb.wtf



    Дорогой пользователь! Огромная просьба, поблагодарите релизера, оцените раздачу и оставьте свои комментарий, если Вы скачали Смерть в сети через торрент бесплатно! Внесите свою лепту в развитие PiratBit!
    Комментировать посты могут только пользователи прошедшие не сложную регистрацию
    Показать сообщения:    

    Смерть в сети через торрент
    Скачать бесплатно Смерть в сети
    Смерть в сети скачать торрент
    Смерть в сети смотреть онлайн
    Cкачать фильм Смерть в сети бесплатно
    Смерть в сети скачать торрент в хорошем качестве
    Смерть в сети смотреть онлайн бесплатно в хорошем качестве


    Вы не можете начинать темы
    Вы не можете отвечать на сообщения
    Вы не можете редактировать свои сообщения
    Вы не можете удалять свои сообщения
    Вы не можете голосовать в опросах
    Вы не можете прикреплять файлы к сообщениям
    Вы можете скачивать файлы