Ссылка на приватное зеркало всего за 1$. Внимание количество ограничено!!!

OK

1+1

iTunes

мы

OK

1

WEB-DLRip

Джокер

Пифагор

Ведьмак / The Witcher сериал

iTunes

ПШазам

ОК

Оно 2

iTunes

30
pack

Вам бонус

ВАЖНО

!!Акция!!

Alien_RageХит недели

RePack

Resident Evil 21

ИГРА 18+

pack

RePack

jed

RePack

fifa19

RePack

Assassins Creed: Odyssey

RePack

NEED FOR SPEED™ PAYBACK

4 сезон

9 сезон

Бесстыжие 9 сезон

Все сериалы

все сериалы на PB.wtf

RePack

FAR CRY 5
  

Курортная полиция / Сезон: 1 / Серии 1-20 из 20 (Сергей Виноградов) [ 2014 , Россия, Украина , детектив, комедия , WEBDLRip-AVC ] pb.wtf

Курортная полиция через торрент pb.wtf

Размер: 13.7 GB | Добавлен: 5 лет 6 мес. назад | Торрент скачан:209 раз
Скачать  

15-07-2014 02:56 Курортная полиция Скачать торрент  

Курортная полиция
Год выпуска: 2014
Страна: Россия, Украина
Жанр: детектив, комедия
Продолжительность: 00:45:13 (Серия)
Перевод: Не требуется
Субтитры: Нет
Режиссер: Сергей Виноградов
Сценарий: Вадим Панов, Олег Галицкий
Продюсер: Саркис Орбелян, Алексей Пивоваров
Оператор: Николай Трухин
В ролях:
Ирина Линдт (Ирина Самойленко, начальник «Курортной полиции»), Юрий Кузнецов (Спартак Васильевич Курочкин), Денис Васильев (Андрей Малой), Андрей Стоянов (Сергей Крутов), Александр Гузов, Ольга Сулименко (Надежда Петрухина), Олег Карпенко (Кирилл «Моджахед» Зарубин), Наталья Ковалева (Люда Харитонова), Янина Крылова (Настя), Вадим Головко (Илья), Александр Половец (бандит «Лысый»), Сергей Анашкин (фотограф Вадима)
Описание:
Курортная полиция — специальное полицейское подразделение, призванное «улучшить морально-этический климат» в курортной зоне, а проще говоря — утихомирить мелких жуликов всех мастей, которые каждый сезон слетаются на морское побережье с первыми лучами майского солнца. Условия отбора кандидатов в курортную полицию были просты: сотрудники должны иметь достаточную квалификацию и не быть знакомы друг с другом, чтобы исключить вероятность ненужных сговоров. Пробное подразделение сформировали из трех поколений полицейских из разных регионов России.
Рейтинг
Качество: WEBDLRip-AVC
Формат: MKV
Видео кодек: AVC
Аудио кодек: AC3
Видео: 2000 Кбит/сек, 1024*576 (16:9), в 25,000 кадров/сек, AVC
Аудио: 192 Кбит/сек, 48,0 КГц, 16 бит, 2 канала, AC-3 Раздача ведётся путём добавления новых серийДобавлены 17-20 серии (26.07.2014)Просьба перекачать торрент файл

Внимание! Раздача ведётся путём добавления новых ; при каждом добавлении создаётся новый торрент. Чтобы начать докачку новой , пользователям необходимо сделать следующее:
(1) остановить скачивание,
(2) удалить старый торрент у себя из клиента (старые удалять не надо),
(3) скачать новый торрент и запустить его у себя в клиенте вместо старого, при этом указать клиенту путь в старую папку куда и должно происходить скачивание новых .
Ваш клиент при этом должен произвести хеширование (проверку) старой (если не производит сам - помогите ему сделать это), и будет докачивать только те которых у вас ещё нет. Старые при этом не удаляются, а продолжают раздаваться!
Eсли вы уже удалили старые , то предотвратить повторную закачку старых можно, отжав галочку в соответсвующих местах при запуске торрента. По возможности, желательно не удалять старые как можно дольше чтобы релизёр не столько продолжал раздавать старые , а смог сконцентрироваться на новых.

Общее
Уникальный идентификатор : 243875803808817945863034452222551038595 (0xB778C575AA800737ADFDF4E90E9C9A83)
Полное имя : D:\Фильмы\Курортная полиция(2014)\Kurortnaya.politsiya.(02.seriya.iz.20).2014.WEB-DLRip.(AVC).mkv
Формат : Matroska
Версия формата : Version 2
Размер файла : 709 Мбайт
Продолжительность : 45 м.
Режим общего битрейта : Постоянный
Общий поток : 2192 Кбит/сек
Название фильма : Kurortnaya.politsiya.(02.seriya.iz.20).2014.WEB-DLRip.(AVC).MediaClub
Дата кодирования : UTC 2014-07-14 19:46:41
Программа кодирования : mkvmerge v5.8.0 ('No Sleep / Pillow') built on Sep 2 2012 15:37:04
Библиотека кодирования : libebml v1.2.3 + libmatroska v1.3.0

Видео
Идентификатор : 1
Формат : AVC
Формат/Информация : Advanced Video Codec
Профиль формата : Main@L3.1
Параметр CABAC формата : Да
Параметр ReFrames формата : 2 кадра
Идентификатор кодека : V_MPEG4/ISO/AVC
Продолжительность : 45 м.
Вид битрейта : Постоянный
Битрейт : 2000 Кбит/сек
Ширина : 1024 пикселя
Высота : 576 пикселей
Соотношение сторон : 16:9
Режим частоты кадров : Постоянный
Частота кадров : 25,000 кадров/сек
Цветовое пространство : YUV
Субдискретизация насыщенности : 4:2:0
Битовая глубина : 8 бит
Тип развёртки : Прогрессивная
Бит/(Пиксели*Кадры) : 0.136
Размер потока : 633 Мбайт (89%)
Default : Да
Forced : Да

Аудио
Идентификатор : 2
Формат : AC-3
Формат/Информация : Audio Coding 3
Расширение режима : CM (complete main)
Параметр Endianness формата : Big
Идентификатор кодека : A_AC3
Продолжительность : 45 м.
Вид битрейта : Постоянный
Битрейт : 192 Кбит/сек
Каналы : 2 канала
Расположение каналов : Front: L R
Частота : 48,0 КГц
Битовая глубина : 16 бит
Метод сжатия : С потерями
Размер потока : 62,1 Мбайт (9%)
Язык : Russian
Default : Да
Forced : Да

скриншот   скриншот   скриншот   скриншот   скриншот   скриншот   скриншот   скриншот   скриншот  
pb.wtf



Скачать Курортная полиция через торрент http://pic.kartinco.top/images/6/w85wu.jpg Скачать фильм Курортная полиция через торрент бесплантно в хорошем качестве Описание:Курортная полиция — специальное полицейское подразделение, призванное «улучшить морально-этический климат» в курортной зоне, а ... 8.8 10 20
Info! Золотая раздача, скачанное не засчитывается.
Торрент: Зарегистрирован [2014-07-26 01:27] · скачан: 209 раз
Статус: √ проверено
Размер: 13.7 GB
Как cкачать? Как скачать Курортная полиция через торрент | qTorrent

28-11-2019 20:33  

Отключить всю рекламу на сайте

07-08-2014 17:49 Курортная полиция Скачать торрент  

pb.wtf



    Дорогой пользователь! Огромная просьба, поблагодарите релизера, оцените раздачу и оставьте свои комментарий, если Вы скачали Курортная полиция через торрент бесплатно! Внесите свою лепту в развитие PiratBit!
    Комментировать посты могут только пользователи прошедшие не сложную регистрацию
    Показать сообщения:    

    Курортная полиция через торрент
    Скачать бесплатно Курортная полиция
    Курортная полиция скачать торрент
    Курортная полиция смотреть онлайн
    Cкачать фильм Курортная полиция бесплатно
    Курортная полиция скачать торрент в хорошем качестве
    Курортная полиция смотреть онлайн бесплатно в хорошем качестве


    Вы не можете начинать темы
    Вы не можете отвечать на сообщения
    Вы не можете редактировать свои сообщения
    Вы не можете удалять свои сообщения
    Вы не можете голосовать в опросах
    Вы не можете прикреплять файлы к сообщениям
    Вы можете скачивать файлы