1 сезон

1 сезон

iTunes

1

КиноПоиск HD

Кинопоиск HD

iTunes

13

1 сезон

RePack

30

Ultimate

ВАЖНО

ИГРА 18+

pack

RePack

MK11
pack

Легкие деньги

RePack

jed

RePack

fifa19

RePack

RDR2

RePack

NEED FOR SPEED™ PAYBACK

4 сезон

9 сезон

Бесстыжие 9 сезон

Все сериалы

все сериалы на PB.wtf

RePack

FAR CRY 5
  
Magnet ссылка

Хозяева подземелий / Rats (Тибор Такач / Tibor Takács) [2003, США, ужасы, фантастика, триллер, DVDRip,Многоголосый, закадровый) [Лицензия] + Оригинал] pb.wtf

Хозяева подземелий через торрент pb.wtf

Размер: 1.45 GB | Добавлен: 6 лет 8 мес. назад | Торрент скачан:203 раза
Скачать  

15-07-2014 09:35 Хозяева подземелий Скачать торрент  

Хозяева подземелий / Rats

«Они идут на смену человечеству»Год выпуска: 2003
Страна: США
Жанр: ужасы, фантастика, триллер
Продолжительность: 01:27:33
Перевод: Многоголосый, закадровый) [Лицензия]

Режиссер: Тибор Такач / Tibor Takács
В ролях:
Сара Доунинг (Samantha / Jennifer), Эми Паркс (Maureen), Бэйли Чейз (Johnny Falls), Майкл Зелникер (Ernst), Шон Каллен (Lenny), Майкл Хэгерти (Michael), Тарри Маркелл (Naomi), Рон Перлман (Dr. William Winslow), Патрик Драйкаусс (Morgan), Эйлин Грубба (Rose), Десислава Тенекеджиева (Cypress), Джон Пол Янг (Hans: The Exterminator)
Мировая премьера: 15 января 2003
Описание:
Лишь избранные знают об институте Брукдэйл, где в строжайшей секретности лечатся самые знаменитые наркоманы и безумцы. Отважной журналистке Дженнифер удается проникнуть за его стены, но, охотясь за скандальными фактами, она не догадывается, что ее репортаж будет написан кровью.
Выведывая шокирующие детали жизни в клинике, она вскоре узнает, что Брукдэйл наводнен разумными крысами-убийцами, объявившими охоту на людей. Число беспомощных жертв растет, и, кажется, уже никто не в силах остановить кровавую вакханалию.
Рейтинг
kinopoisk.ru: 4.097 (143)
imdb.com: 3.40 (783)
MPAA: R - Лицам до 17 лет обязательно присутствие взрослого
Качество: DVDRip
Формат: AVI
Видео кодек: MPEG-4 Visual
Аудио кодек:AC3
Видео: MPEG-4 Visual, 720x400 (16:9), 1579 kbps, 25 fps, 0,219 bpp
Аудио №1: Русский AC3 / 5.1 / 48 kHz / 384 kbps / 16 bit
Аудио №2: Русский AC3 / 2.0 / 48 kHz / 192 kbps / 16 bit (Сигма Фильм)
Аудио №3: Aнглийский AC3 / 2.0 / 48 kHz / 192 kbps / 16 bit
General
Complete name : D:\Фильмы\Хозяева подземелий.avi
Format : AVI
Format/Info : Audio Video Interleave
Format profile : OpenDML
File size : 1.45 GiB
Duration : 1h 27mn
Overall bit rate : 2 374 Kbps
Writing application : Lavf51.12.1

Video
ID : 0
Format : MPEG-4 Visual
Format profile : Simple@L1
Format settings, BVOP : No
Format settings, QPel : No
Format settings, GMC : No warppoints
Format settings, Matrix : Default (H.263)
Codec ID : FMP4
Duration : 1h 27mn
Bit rate : 1 580 Kbps
Width : 720 pixels
Height : 400 pixels
Display aspect ratio : 16:9
Frame rate : 25.000 fps
Color space : YUV
Chroma subsampling : 4:2:0
Bit depth : 8 bits
Scan type : Progressive
Compression mode : Lossy
Bits/(Pixel*Frame) : 0.219
Stream size : 989 MiB (67%)
Writing library : Lavc51.40.4

Audio #1
ID : 1
Format : AC-3
Format/Info : Audio Coding 3
Mode extension : CM (complete main)
Codec ID : 2000
Duration : 1h 27mn
Bit rate mode : Constant
Bit rate : 384 Kbps
Channel(s) : 6 channels
Channel positions : Front: L C R, Side: L R, LFE
Sampling rate : 48.0 KHz
Bit depth : 16 bits
Compression mode : Lossy
Stream size : 240 MiB (16%)
Alignment : Aligned on interleaves
Interleave, duration : 32 ms (0.80 video frame)
Interleave, preload duration : 32 ms

Audio #2
ID : 2
Format : AC-3
Format/Info : Audio Coding 3
Mode extension : CM (complete main)
Codec ID : 2000
Duration : 1h 27mn
Bit rate mode : Constant
Bit rate : 192 Kbps
Channel(s) : 2 channels
Channel positions : Front: L R
Sampling rate : 48.0 KHz
Bit depth : 16 bits
Compression mode : Lossy
Stream size : 120 MiB (8%)
Alignment : Aligned on interleaves
Interleave, duration : 32 ms (0.80 video frame)
Interleave, preload duration : 32 ms

Audio #3
ID : 3
Format : AC-3
Format/Info : Audio Coding 3
Mode extension : CM (complete main)
Codec ID : 2000
Duration : 1h 27mn
Bit rate mode : Constant
Bit rate : 192 Kbps
Channel(s) : 2 channels
Channel positions : Front: L R
Sampling rate : 48.0 KHz
Bit depth : 16 bits
Compression mode : Lossy
Stream size : 120 MiB (8%)
Alignment : Aligned on interleaves
Interleave, duration : 32 ms (0.80 video frame)
Interleave, preload duration : 32 ms
скриншот   скриншот   скриншот   скриншот   скриншот   скриншот   скриншот   скриншот   скриншот   скриншот  

pb.wtf



Скачать Хозяева подземелий через торрент https://pic.kartinco.top/images/6/l1e8c.jpg Скачать фильм Хозяева подземелий через торрент бесплантно в хорошем качестве Описание:Лишь избранные знают об институте Брукдэйл, где в строжайшей секретности лечатся самые знаменитые наркоманы и безумцы. Отважной ... 9.8 10 13
Торрент: Зарегистрирован [2014-07-15 09:35] · скачан: 203 раз
Статус: √ проверено
Размер: 1.45 GB
Как cкачать? Как скачать Хозяева подземелий через торрент | UTorrent

28-11-2019 20:33  

Отключить всю рекламу на сайте


15-07-2014 17:10 Хозяева подземелий Скачать торрент  

rofl rofl rofl rofl rofl rofl rofl rofl rofl rofl roflpb.wtf



15-07-2014 18:30 Хозяева подземелий Скачать торрент  

GEKADOL писал(а):

[qpost=undefined]Рон Перлман

есть Режиссер Уве Болл при участии которого фильм это провал в 99%..также Рон Перлман снимается во всякой фигне.pb.wtf



    Дорогой пользователь! Огромная просьба, поблагодарите релизера, оцените раздачу и оставьте свои комментарий, если Вы скачали Хозяева подземелий через торрент бесплатно! Внесите свою лепту в развитие PiratBit!
    Комментировать посты могут только пользователи прошедшие не сложную регистрацию
    Показать сообщения:    

    Хозяева подземелий через торрент
    Скачать бесплатно Хозяева подземелий
    Хозяева подземелий скачать торрент
    Хозяева подземелий смотреть онлайн
    Cкачать фильм Хозяева подземелий бесплатно
    Хозяева подземелий скачать торрент в хорошем качестве
    Хозяева подземелий смотреть онлайн бесплатно в хорошем качестве


    Вы не можете начинать темы
    Вы не можете отвечать на сообщения
    Вы не можете редактировать свои сообщения
    Вы не можете удалять свои сообщения
    Вы не можете голосовать в опросах
    Вы не можете прикреплять файлы к сообщениям
    Вы можете скачивать файлы