Ссылка на приватное зеркало нашего сайта всего за 1$. Внимание количество ограничено!!!

2 сезон

iTunes

1 сезон

1

iTunes

iTunes

iTunes

1 сезон

RePack

30

ИГРА 18+

pack

ВАЖНО

!!Акция!!

Alien_RageХит недели

RePack

MK11
pack

Забери бонус

RePack

jed

!!Акция!!

Alien_Rage

RePack

fifa19

RePack

Assassins Creed: Odyssey

RePack

NEED FOR SPEED™ PAYBACK

4 сезон

9 сезон

Бесстыжие 9 сезон

Все сериалы

все сериалы на PB.wtf

RePack

FAR CRY 5
  

Путь нечестивых / Way of the Wicked (Кевин Каррауэй / Kevin Carraway) [2014, США, Канада, триллер, драма, HDRip, Любительский (двухголосый)[den904, DeadSno] pb.wtf

Путь нечестивых через торрент pb.wtf

Размер: 1.37 GB | Добавлен: 6 лет 3 мес. назад | Торрент скачан:338 раз
Скачать  

15-07-2014 19:40 Путь нечестивых Скачать торрент  

Путь нечестивых / Way of the Wicked
«Evil never dies......»

Год выпуска: 2014
Страна: США, Канада
Жанр:триллер, драма
Продолжительность:01:32:06
Перевод:Любительский (двухголосый)[den904, DeadSno]
Режиссер:Кевин Каррауэй / Kevin Carraway

  • В ролях:

    Винни Джонс (John Elliott), Кристиан Слэйтер (Henry), Эмили Теннант (Heather), Джейк Крокер (Robbie), Арен Бучольц (Greg), Мэттью Роберт Келли (Detective Fleming), Бриттни Уилсон (Cindy), Джедидайя Гудакр (Matt), Джиллиан Фергей (Elizabeth), Крис Шилдс (Teacher), Анна Галвин (Laura), Sydney Waack (Young Heather)

  • Описание:
    После жестоких и беспощадных убийств, которые случились в небольшом городке, изолированном от цивилизации, отец Генри рассказывает местному следователю свою версию случившегося. По его мнению, ко всем преступлениям имеет отношение один подросток, который появился в их городе совсем недавно. Отец уверен, что парень обладает сверхъестественными силами, его душа подчиняется властям тьмы.

  • Мировая премьера:30 апреля 2014


      Качество: HDRip
      Формат:AVI
      Видео кодек: XviD
      Аудио кодек:AC3
      Видео: 720x400 (16:9), 1731 kbps, 23,976 fps, 0,251 bpp
      Аудио №1: 2.0 / 48 kHz / 192 kbps / 16 bit/Русский
      Аудио №2: 2.0 / 48 kHz / 192 kbps / 16 bit/Английский


    Код:

    General
    Complete name                            : D:\Торенты\Way.of.the.Wicked.2014.L2.HDRip.1400Mb.avi
    Format                                   : AVI
    Format/Info                              : Audio Video Interleave
    File size                                : 1.37 GiB
    Duration                                 : 1h 32mn
    Overall bit rate                         : 2 129 Kbps
    Writing application                      : VirtualDubMod 1.5.10.3 | www.virtualdub-fr.org || (build 2550/release)
    Writing library                          : VirtualDubMod build 2550/release

    Video
    ID                                       : 0
    Format                                   : MPEG-4 Visual
    Format profile                           : Advanced Simple@L5
    Format settings, BVOP                    : 2
    Format settings, QPel                    : No
    Format settings, GMC                     : No warppoints
    Format settings, Matrix                  : Default (H.263)
    Codec ID                                 : XVID
    Codec ID/Hint                            : XviD
    Duration                                 : 1h 32mn
    Bit rate                                 : 1 731 Kbps
    Width                                    : 720 pixels
    Height                                   : 400 pixels
    Display aspect ratio                     : 16:9
    Frame rate                               : 23.976 fps
    Color space                              : YUV
    Chroma subsampling                       : 4:2:0
    Bit depth                                : 8 bits
    Scan type                                : Progressive
    Compression mode                         : Lossy
    Bits/(Pixel*Frame)                       : 0.251
    Stream size                              : 1.11 GiB (81%)
    Writing library                          : XviD 1.2.1 (UTC 2008-12-04)

    Audio #1
    ID                                       : 1
    Format                                   : AC-3
    Format/Info                              : Audio Coding 3
    Mode extension                           : CM (complete main)
    Codec ID                                 : 2000
    Duration                                 : 1h 32mn
    Bit rate mode                            : Constant
    Bit rate                                 : 192 Kbps
    Channel(s)                               : 2 channels
    Channel positions                        : Front: L R
    Sampling rate                            : 48.0 KHz
    Bit depth                                : 16 bits
    Compression mode                         : Lossy
    Stream size                              : 126 MiB (9%)
    Alignment                                : Split accross interleaves
    Interleave, duration                     : 42 ms (1.00 video frame)
    Interleave, preload duration             : 500 ms

    Audio #2
    ID                                       : 2
    Format                                   : AC-3
    Format/Info                              : Audio Coding 3
    Mode extension                           : CM (complete main)
    Codec ID                                 : 2000
    Duration                                 : 1h 32mn
    Bit rate mode                            : Constant
    Bit rate                                 : 192 Kbps
    Channel(s)                               : 2 channels
    Channel positions                        : Front: L R
    Sampling rate                            : 48.0 KHz
    Bit depth                                : 16 bits
    Compression mode                         : Lossy
    Stream size                              : 126 MiB (9%)
    Alignment                                : Split accross interleaves
    Interleave, duration                     : 42 ms (1.00 video frame)
    Interleave, preload duration             : 500 ms

    Скриншоты:

    Каталог Новинок (Фильмы-трейлеры, Игры, Сериалы, Мультфильмы)

    © Оформление by Raven
    pb.wtf



  • Скачать Путь нечестивых через торрент http://i68.fastpic.ru/big/2014/0715/cd/4cbec6c86129aa7fb075b6a686b1c6cd.jpg Скачать фильм Путь нечестивых через торрент бесплантно в хорошем качестве Описание:После жестоких и беспощадных убийств, которые случились в небольшом городке, изолированном от цивилизации, отец Генри рассказывает ... 8.4 10 7
    Торрент: Зарегистрирован [2014-07-15 19:40] · скачан: 338 раз
    Статус: √ проверено
    Размер: 1.37 GB
    Как cкачать? Как скачать Путь нечестивых через торрент | qTorrent

    % Раздел Тема Автор DL S | L
    Фильмы (Blu-ray, BD-Remux, HDDVD) [ 18.5 GB ] Путь нечестивых / Way of the Wicked [2014 BDRemux 1080p ] DVO nikitun Скачать
    1 | 0

    28-11-2019 20:33  

    Отключить всю рекламу на сайте

    16-07-2014 13:12 Путь нечестивых Скачать торрент  

    Трейлер неплох, хоть и заметно что картина довольно таки дешевенькаяpb.wtf



      Дорогой пользователь! Огромная просьба, поблагодарите релизера, оцените раздачу и оставьте свои комментарий, если Вы скачали Путь нечестивых через торрент бесплатно! Внесите свою лепту в развитие PiratBit!
      Комментировать посты могут только пользователи прошедшие не сложную регистрацию
      Показать сообщения:    

      Путь нечестивых через торрент
      Скачать бесплатно Путь нечестивых
      Путь нечестивых скачать торрент
      Путь нечестивых смотреть онлайн
      Cкачать фильм Путь нечестивых бесплатно
      Путь нечестивых скачать торрент в хорошем качестве
      Путь нечестивых смотреть онлайн бесплатно в хорошем качестве


      Вы не можете начинать темы
      Вы не можете отвечать на сообщения
      Вы не можете редактировать свои сообщения
      Вы не можете удалять свои сообщения
      Вы не можете голосовать в опросах
      Вы не можете прикреплять файлы к сообщениям
      Вы можете скачивать файлы