Ссылка на приватное зеркало всего за 1$. Внимание количество ограничено!!!

iTunes

1+1

iTunes

мы

MV0

1

WEB-DLRip

Джокер

Пифагор

Ведьмак / The Witcher сериал

iTunes

ПШазам

iTunes

Оно 2

iTunes

30
pack

Вам бонус

ВАЖНО

!!Акция!!

Alien_RageХит недели

RePack

Resident Evil 21

ИГРА 18+

pack

RePack

jed

!!Акция!!

Alien_Rage

RePack

fifa19

RePack

Assassins Creed: Odyssey

RePack

NEED FOR SPEED™ PAYBACK

4 сезон

9 сезон

Бесстыжие 9 сезон

Все сериалы

все сериалы на PB.wtf

RePack

FAR CRY 5
  

Свадьба в Малиновке (Андрей Тутышкин) [1967, СССР, мюзикл, комедия, BDRip] pb.wtf

Свадьба в Малиновке через торрент pb.wtf

Размер: 1.46 GB | Добавлен: 5 лет 7 мес. назад | Торрент скачан:735 раз
Скачать  

16-07-2014 06:34 Свадьба в Малиновке Скачать торрент  

Свадьба в Малиновке


Год выпуска: 1967
Страна: СССР
Жанр:мюзикл, комедия
Продолжительность:01:32:19
Перевод:Не требуется
Режиссер:Андрей Тутышкин

  • В ролях:

    Владимир Самойлов (Назар Дума), Людмила Алфимова (Софья), Валентина Николаенко (Яринка), Евгений Лебедев (Нечипор), Зоя Фёдорова (Горпина Дормидонтовна), Гелий Сысоев (Андрейка), Михаил Пуговкин (Яшка-артиллерист), Николай Сличенко (Петря Бессарабец), Андрей Абрикосов (Балясный), Григорий Абрикосов (Грициан Таврический), Михаил Водяной (Попандопуло), Тамара Носова (Комариха)

  • Описание:
    Идет гражданская воина. В украинской деревне то и дело меняется Влacть. Чтобы разделаться с бандой головорезов, красный командир уговаривает девушку Яринку разыграть ее свадьбу с атаманом...

  • Мировая премьера:13 ноября 1967


      Релиз от: HQ-ViDEO
      Качество: BDRip
      Формат:AVI
      Видео кодек: XviD
      Аудио кодек:AC3
      Видео: 720x304 (2.35:1), 1802 kbps, 23,976 fps, 0,344 bpp
      Аудио: 5.1 / 48 kHz / 448 kbps / 16 bit


    Код:

    General
    Complete name                            : D:\Торенты\Svadba.V.Malinovke.1967.RUS.BDRip.XviD.AC3.-HQ-ViDEO.avi
    Format                                   : AVI
    Format/Info                              : Audio Video Interleave
    File size                                : 1.46 GiB
    Duration                                 : 1h 32mn
    Overall bit rate                         : 2 260 Kbps
    Movie name                               : Свадьба в Малиновке (1967)
    Director                                 : Shevon (Blu-Ray Disk)
    Writing application                      : VirtualDubMod 1.5.10.2 (build 2540/release)
    Copyright                                : HQ-ViDEO
    Comment                                  : 27.12.2010

    Video
    ID                                       : 0
    Format                                   : MPEG-4 Visual
    Format profile                           : Advanced Simple@L5
    Format settings, BVOP                    : 1
    Format settings, QPel                    : No
    Format settings, GMC                     : No warppoints
    Format settings, Matrix                  : Custom
    Codec ID                                 : XVID
    Codec ID/Hint                            : XviD
    Duration                                 : 1h 32mn
    Bit rate                                 : 1 803 Kbps
    Width                                    : 720 pixels
    Height                                   : 304 pixels
    Display aspect ratio                     : 2.35:1
    Frame rate                               : 23.976 fps
    Color space                              : YUV
    Chroma subsampling                       : 4:2:0
    Bit depth                                : 8 bits
    Scan type                                : Progressive
    Compression mode                         : Lossy
    Bits/(Pixel*Frame)                       : 0.344
    Stream size                              : 1.16 GiB (80%)
    Writing library                          : XviD 1.2.1 (UTC 2008-12-04)

    Audio
    ID                                       : 1
    Format                                   : AC-3
    Format/Info                              : Audio Coding 3
    Mode extension                           : CM (complete main)
    Codec ID                                 : 2000
    Duration                                 : 1h 32mn
    Bit rate mode                            : Constant
    Bit rate                                 : 448 Kbps
    Channel(s)                               : 6 channels
    Channel positions                        : Front: L C R, Side: L R, LFE
    Sampling rate                            : 48.0 KHz
    Bit depth                                : 16 bits
    Compression mode                         : Lossy
    Stream size                              : 296 MiB (20%)
    Alignment                                : Split accross interleaves
    Interleave, duration                     : 42 ms (1.00 video frame)
    Interleave, preload duration             : 500 ms

    Скриншоты:

    Каталог Новинок (Фильмы-трейлеры, Игры, Сериалы, Мультфильмы)

    © Оформление by Raven
    pb.wtf



  • Скачать Свадьба в Малиновке через торрент http://i68.fastpic.ru/big/2014/0716/12/c55d67bf78c29725161f14f62b1d5212.jpg Скачать фильм Свадьба в Малиновке через торрент бесплантно в хорошем качестве Описание:Идет гражданская воина. В украинской деревне то и дело меняется Влacть. Чтобы разделаться с бандой головорезов, красный командир ... 9.6 10 24
    Info! Золотая раздача, скачанное не засчитывается.
    Торрент: Зарегистрирован [2014-07-16 06:34] · скачан: 735 раз
    Статус: √ проверено
    Размер: 1.46 GB
    Как cкачать? Как скачать Свадьба в Малиновке через торрент | qTorrent

    % Раздел Тема Автор DL S | L
    Кино СССР [ 5.33 GB ] Свадьба в Малиновке [1967 мюзикл военный BDRip 720р] - KORSAR kisa1980 Скачать
    2 | 0
    Кино СССР [ 2.18 GB ] Свадьба в Малиновке [1967 СССР мюзикл военный BDRip 720p от AVP Studio] AVP Studio Скачать
    2 | 0
    Кино СССР [ 1.46 GB ] Свадьба в Малиновке [1967 СССР мюзикл военный BDRip-AVC от AVP Studio] AVP Studio Скачать
    1 | 0
    Кино СССР [ 4.37 GB ] Свадьба в Малиновке [1967 СССР мюзикл военный BDRip 1080p от AVP Studio] AVP Studio Скачать
    2 | 0
    Кино СССР [ 1.09 GB ] Свадьба в Малиновке [1967 СССР мюзикл военный BDRip от AVP Studio] AVP Studio Скачать
    1 | 0
    # Фильмы (BDRip, HDrip-AVC) (48-60 fps) [ 11.97 GB ] Свадьба в Малиновке [1967 мюзикл BDRip-AVC by WSM] [60FPS] WorldSM Скачать
    1 | 0
    Наши фильмы (Blu-ray, BD-Remux, HDDVD) [ 19.31 GB ] Свадьба в Малиновке [1967 мюзикл Blu-Ray Remux Оригинал] dallas2007 Скачать
    1 | 0

    28-11-2019 20:33  

    Отключить всю рекламу на сайте

    29-09-2014 13:58 Свадьба в Малиновке Скачать торрент  

    Один из моих любимых фильмов, спасибо.pb.wtf



    18-10-2014 13:58 Свадьба в Малиновке Скачать торрент  

    А шо это я в тебя такой влюбленный?!pb.wtf



      Дорогой пользователь! Огромная просьба, поблагодарите релизера, оцените раздачу и оставьте свои комментарий, если Вы скачали Свадьба в Малиновке через торрент бесплатно! Внесите свою лепту в развитие PiratBit!
      Комментировать посты могут только пользователи прошедшие не сложную регистрацию
      Показать сообщения:    

      Свадьба в Малиновке через торрент
      Скачать бесплатно Свадьба в Малиновке
      Свадьба в Малиновке скачать торрент
      Свадьба в Малиновке смотреть онлайн
      Cкачать фильм Свадьба в Малиновке бесплатно
      Свадьба в Малиновке скачать торрент в хорошем качестве
      Свадьба в Малиновке смотреть онлайн бесплатно в хорошем качестве


      Вы не можете начинать темы
      Вы не можете отвечать на сообщения
      Вы не можете редактировать свои сообщения
      Вы не можете удалять свои сообщения
      Вы не можете голосовать в опросах
      Вы не можете прикреплять файлы к сообщениям
      Вы можете скачивать файлы