Ссылка на приватное зеркало нашего сайта всего за 1$. Внимание количество ограничено!!!

2 сезон

iTunes

1 сезон

1

2 сезон

2 сезон

iTunes

1 сезон

RePack

30

Ultimate

ВАЖНО

ИГРА 18+

pack

RePack

MK11
pack

Забери бонус

RePack

jed

!!Акция!!

Alien_Rage

RePack

fifa19

RePack

Assassins Creed: Odyssey

RePack

NEED FOR SPEED™ PAYBACK

4 сезон

9 сезон

Бесстыжие 9 сезон

Все сериалы

все сериалы на PB.wtf

RePack

FAR CRY 5
  

Вне закона (Выпуск 01-02 из 02) [Эфир от 16.07.2014] [2014 г., документальный, SATRip] pb.wtf

Вне закона через торрент pb.wtf

Размер: 666 MB | Добавлен: 6 лет 4 мес. назад | Торрент скачан:38 раз
Скачать  

16-07-2014 15:24 Вне закона Скачать торрент  

Вне закона (Выпуск 01-02 из 02) [Эфир от 16.07.2014]
Год выпуска: 2014
Страна: Россия
Жанр: документальный
Продолжительность: 00:48:00
Перевод: Оригинал

Описание: Программа «Вне закона. Преступление и наказание» представляет собой реконструкцию событий совершённых преступлений, это симбиоз детективного расследования с художественным кино. Каждый выпуск посвящён расследованию одного из уголовных дел, приговор по которому приведён в исполнение. Основываясь на воспоминаниях очевидцев, материалах следствия и оперативных данных, в программе воссоздаётся полная картина преступления. Съёмки построены таким образом, что игровые моменты перемежаются с реальной оперативной съёмкой. Программа «Вне закона. Преступление и наказание» призывает зрителей быть не просто наблюдателями, а мысленно принять участие в расследовании, стать полноправным искателем ответов на вопросы "что", "как" и "почему", почувствовать себя в роли следователя.

Качество: SATRip
Формат: avi
Видео кодек: XviD
Аудио кодек: MP3
Видео: 720x536 (1.34:1), 25 fps, XviD build 73 ~1798 kbps avg, 0.19 bit/pixel
Аудио#1: 48 kHz, MPEG Layer 3, 2 ch, ~128.00 kbps avg
Релиз от: Deadmauvlad
скриншот   скриншот   скриншот   скриншот   скриншот   скриншот   скриншот   скриншот   скриншот   скриншот  

Код:

Общее
Полное имя                               : C:\Users\DeadmauVlad\Desktop\vne.zakona.SATRip.Deadmauvlad.16.07.2014..avi
Формат                                   : AVI
Формат/Информация                        : Audio Video Interleave
Размер файла                             : 666 Мбайт
Продолжительность                        : 48 м.
Общий поток                              : 1936 Кбит/сек
Название фильма                          : vne.zakona.SATRip.Deadmauvlad.16.07.2014
Режиссёр                                 : Deadmauvlad
Жанр                                     : Криминал,драма
Программа кодирования                    : VirtualDubMod 1.5.10.3 | www.virtualdub-fr.org || (build 2550/release)
Формат оригинала/Имя                     : Фильм
Правообладатель                          : Goldenshara

Видео
Идентификатор                            : 0
Формат                                   : MPEG-4 Visual
Профиль формата                          : Advanced Simple@L5
Параметр BVOP формата                    : 1
Параметр QPel формата                    : Нет
Параметр GMC формата                     : Без точки перехода
Параметр матрицы формата                 : Выборочная
Идентификатор кодека                     : XVID
Идентификатор кодека/Подсказка           : XviD
Продолжительность                        : 48 м.
Битрейт                                  : 1799 Кбит/сек
Ширина                                   : 720 пикселей
Высота                                   : 536 пикселей
Соотношение сторон                       : 4:3
Частота кадров                           : 25,000 кадров/сек
Цветовое пространство                    : YUV
Субдискретизация насыщенности            : 4:2:0
Битовая глубина                          : 8 бит
Тип развёртки                            : Прогрессивная
Метод сжатия                             : С потерями
Бит/(Пиксели*Кадры)                      : 0.186
Размер потока                            : 618 Мбайт (93%)
Библиотека кодирования                   : XviD 73

Аудио
Идентификатор                            : 1
Формат                                   : MPEG Audio
Версия формата                           : Version 1
Профиль формата                          : Layer 3
Идентификатор кодека                     : 55
Идентификатор кодека/Подсказка           : MP3
Продолжительность                        : 48 м.
Вид битрейта                             : Постоянный
Битрейт                                  : 128 Кбит/сек
Каналы                                   : 2 канала
Частота                                  : 48,0 КГц
Метод сжатия                             : С потерями
Размер потока                            : 44,0 Мбайт (7%)
Выравнивание                             : Соединение по промежуткам
Продолжительность промежутка             : 40  мс. (1,00 видеокадр)
Время предзагрузки промежутка            : 504  мс.
Библиотека кодирования                   : LAME3.99r
Настройки программы                      : -m s -V 4 -q 2 -lowpass 17 -b 128


pb.wtf



Скачать Вне закона через торрент http://pic.kartinco.top/images/6/acmsl.jpg Скачать фильм Вне закона через торрент бесплантно в хорошем качестве Описание: Программа «Вне закона. Преступление и наказание» представляет собой реконструкцию событий совершённых преступлений, это симбиоз ... 10 10 2
Торрент: Зарегистрирован [2014-07-16 15:24] · скачан: 38 раз
Статус: √ проверено
Размер: 666 MB
Как cкачать? Как скачать Вне закона через торрент | qTorrent

% Раздел Тема Автор DL S | L
Отечественный шансон [ 297 MB ] Мафик & Маракеш - Любовь вне закона. Часть 1 2018 / FLAC / lossless / Шансон хип-хоп bober100 Скачать
2 | 0
Фильмы 2019-2020 [DVDrip, WEB-DLRip, HDrip] (DUB, MVO) [ 1.46 GB ] Шестеро вне закона / Призрачная шестерка / 6 Underground [2019 WEB-DLRip] - [Пифагор] Twi7ter Скачать
60 | 0
Ultra HD (UHD: 2K, 4K, 8K) — видео сверхвысокой чёткости [ 14.77 GB ] Шестеро вне закона / Призрачная шестерка / 6 Underground [2019 UHD WEBRip 2160p] DUB [Пифагор] bober100 Скачать
2 | 0
Фильмы 2019-2020 [DVDrip, WEB-DLRip, HDrip] (DUB, MVO) [ 2.2 GB ] Шестеро вне закона / Призрачная шестерка / 6 Underground [2019 WEB-DLRip] - [Пифагор] Twi7ter Скачать
20 | 0
Фильмы (WEB-DL 720p, 1080p) [ 5.06 GB ] Шестеро вне закона / 6 Underground [2019 WEBRip 720p] killermax2013 Скачать
5 | 0
Фильмы 2019-2020 [DVDrip, WEB-DLRip, HDrip] (DUB, MVO) [ 2.54 GB ] Шестеро вне закона / Призрачная шестерка / 6 Underground [2019 WEB-DLRip-AVC] DUB [Пифагор] - ExKinoRay Enigma2010 Скачать
21 | 0
Фильмы 2019-2020 [DVDrip, WEB-DLRip, HDrip] (DUB, MVO) [ 744 MB ] Шестеро вне закона / Призрачная шестерка / 6 Underground [2019 WEB-DLRip] DUB [Пифагор] bober100 Скачать
2 | 0

28-11-2019 20:33  

Отключить всю рекламу на сайте

    Дорогой пользователь! Огромная просьба, поблагодарите релизера, оцените раздачу и оставьте свои комментарий, если Вы скачали Вне закона через торрент бесплатно! Внесите свою лепту в развитие PiratBit!
    Комментировать посты могут только пользователи прошедшие не сложную регистрацию
    Показать сообщения:    

    Вне закона через торрент
    Скачать бесплатно Вне закона
    Вне закона скачать торрент
    Вне закона смотреть онлайн
    Cкачать фильм Вне закона бесплатно
    Вне закона скачать торрент в хорошем качестве
    Вне закона смотреть онлайн бесплатно в хорошем качестве


    Вы не можете начинать темы
    Вы не можете отвечать на сообщения
    Вы не можете редактировать свои сообщения
    Вы не можете удалять свои сообщения
    Вы не можете голосовать в опросах
    Вы не можете прикреплять файлы к сообщениям
    Вы можете скачивать файлы