Ссылка на приватное зеркало нашего сайта всего за 1$. Внимание количество ограничено!!!

2 сезон

iTunes

1 сезон

1

2 сезон

2 сезон

iTunes

1 сезон

RePack

30

Новинка

ВАЖНО

ИГРА 18+

pack

RePack

MK11
pack

Забери бонус

RePack

jed

!!Акция!!

Alien_Rage

RePack

fifa19

RePack

Assassins Creed: Odyssey

RePack

NEED FOR SPEED™ PAYBACK

4 сезон

9 сезон

Бесстыжие 9 сезон

Все сериалы

все сериалы на PB.wtf

RePack

FAR CRY 5
  

Душа / Shi hun (Chung Mong-Hong) [2013, Тайвань, ужасы, фэнтези, BDRip 720p, Любительский (одноголосый) pb.wtf

Душа через торрент pb.wtf

Размер: 5.35 GB | Добавлен: 6 лет 4 мес. назад | Торрент скачан:17 раз
Скачать  

16-07-2014 16:14 Душа Скачать торрент  

Душа / Shi hun


Год выпуска: 2013
Страна: Тайвань
Жанр:ужасы, фэнтези
Продолжительность:01:51:38
Перевод:Любительский (одноголосый)PashaUP, по субтитрам: julz_nsk
Субтитры: китайские (CHS), китайские (CHT), английские,
Режиссер:Chung Mong-Hong

  • В ролях:

    Юй Ван (Wang), Сяо-Чуань Чан (A-chuan), Чэнь Шиан-чуй (Yun), Ши-Чжи Чжин (Messenger), Леон Дай, Pong Fong Wu

  • Описание:
    Ачуань, шеф-повар дорогого японского ресторана, падает в обморок, а врач в больнице диагностирует у него депрессию. Друзья отвозят его к отцу в небольшой городок Тайчжун. Там он лежит без признаков жизни, пока в один из дней не начинают происходить чудовищные события.

  • Мировая премьера:28 июня 2013


      Качество: BDRip 720p
      Формат:MKV
      Видео кодек: AVC
      Аудио кодек:AC3
      Видео: 1280x546 (2.35:1), 5768 kbps, 24 fps, 0,344 bpp
      Аудио №1: русский / 5.1 / 48 kHz / 448 kbps / 16 bit ||
      Аудио №2: китайский / 5.1 / 48 kHz / 640 kbps / 16 bit
      Навигация по главам: есть


    Код:

    General
    Unique ID                                : 231730237555690148964674283813645956048 (0xAE559ECF71B6655EAB68BCCD8939B3D0)
    Complete name                            : D:\Торенты\Soul.2013.BDRip720p.mkv
    Format                                   : Matroska
    Format version                           : Version 4 / Version 2
    File size                                : 5.35 GiB
    Duration                                 : 1h 51mn
    Overall bit rate                         : 6 856 Kbps
    Encoded date                             : UTC 2014-07-15 15:58:23
    Writing application                      : mkvmerge v7.0.0 ('Where We Going') 32bit built on Jun  9 2014 15:08:34
    Writing library                          : libebml v1.3.0 + libmatroska v1.4.1
    DURATION                                 : 01:51:38.752000000
    NUMBER_OF_FRAMES                         : 209336
    NUMBER_OF_BYTES                          : 375130112
    _STATISTICS_WRITING_APP                  : mkvmerge v7.0.0 ('Where We Going') 32bit built on Jun  9 2014 15:08:34
    _STATISTICS_WRITING_DATE_UTC             : 2014-07-15 15:58:23
    _STATISTICS_TAGS                         : BPS DURATION NUMBER_OF_FRAMES NUMBER_OF_BYTES

    Video
    ID                                       : 1
    Format                                   : AVC
    Format/Info                              : Advanced Video Codec
    Format profile                           : High@L4.1
    Format settings, CABAC                   : Yes
    Format settings, ReFrames                : 11 frames
    Codec ID                                 : V_MPEG4/ISO/AVC
    Duration                                 : 1h 51mn
    Bit rate                                 : 5 768 Kbps
    Width                                    : 1 280 pixels
    Height                                   : 546 pixels
    Display aspect ratio                     : 2.35:1
    Frame rate                               : 24.000 fps
    Color space                              : YUV
    Chroma subsampling                       : 4:2:0
    Bit depth                                : 8 bits
    Scan type                                : Progressive
    Bits/(Pixel*Frame)                       : 0.344
    Stream size                              : 4.39 GiB (82%)
    Writing library                          : x264 core 136 r2348+704+51 d1baef6 tMod [8-bit@all X86_64]
    Encoding settings                        : cabac=1 / ref=11 / deblock=1:-2:-2 / analyse=0x3:0x133 / me=umh / subme=11 / psy=1 / fade_compensate=0.00 / psy_rd=1.05:0.15 / mixed_ref=1 / me_range=32 / chroma_me=1 / trellis=2 / 8x8dct=1 / cqm=0 / deadzone=21,11 / fast_pskip=0 / chroma_qp_offset=-3 / threads=12 / lookahead_threads=2 / sliced_threads=0 / nr=0 / decimate=0 / interlaced=0 / bluray_compat=0 / constrained_intra=0 / fgo=0 / bframes=8 / b_pyramid=2 / b_adapt=2 / b_bias=0 / direct=3 / weightb=1 / open_gop=0 / weightp=2 / keyint=250 / keyint_min=24 / scenecut=40 / intra_refresh=0 / rc_lookahead=100 / rc=2pass / mbtree=1 / bitrate=5768 / ratetol=1.0 / qcomp=0.70 / qpmin=0:0:0 / qpmax=69:69:69 / qpstep=4 / cplxblur=20.0 / qblur=0.5 / ip_ratio=1.40 / aq=1:0.80 / aq-sensitivity=10.00 / aq-factor=1.00:1.00:1.00 / aq2=0 / aq3=0
    Language                                 : Chinese
    Default                                  : Yes
    Forced                                   : No
    DURATION                                 : 01:51:38.792000000
    NUMBER_OF_FRAMES                         : 160771
    NUMBER_OF_BYTES                          : 4828343966
    _STATISTICS_WRITING_APP                  : mkvmerge v7.0.0 ('Where We Going') 32bit built on Jun  9 2014 15:08:34
    _STATISTICS_WRITING_DATE_UTC             : 2014-07-15 15:58:23
    _STATISTICS_TAGS                         : BPS DURATION NUMBER_OF_FRAMES NUMBER_OF_BYTES
    Matrix coefficients                      : BT.709-5, BT.1361, IEC 61966-2-4 709, SMPTE RP177

    Audio #1
    ID                                       : 2
    Format                                   : AC-3
    Format/Info                              : Audio Coding 3
    Mode extension                           : CM (complete main)
    Codec ID                                 : A_AC3
    Duration                                 : 1h 51mn
    Bit rate mode                            : Constant
    Bit rate                                 : 448 Kbps
    Channel(s)                               : 6 channels
    Channel positions                        : Front: L C R, Side: L R, LFE
    Sampling rate                            : 48.0 KHz
    Bit depth                                : 16 bits
    Compression mode                         : Lossy
    Stream size                              : 358 MiB (7%)
    Language                                 : Russian
    Default                                  : Yes
    Forced                                   : Yes

    Audio #2
    ID                                       : 3
    Format                                   : AC-3
    Format/Info                              : Audio Coding 3
    Mode extension                           : CM (complete main)
    Codec ID                                 : A_AC3
    Duration                                 : 1h 51mn
    Bit rate mode                            : Constant
    Bit rate                                 : 640 Kbps
    Channel(s)                               : 6 channels
    Channel positions                        : Front: L C R, Side: L R, LFE
    Sampling rate                            : 48.0 KHz
    Bit depth                                : 16 bits
    Compression mode                         : Lossy
    Stream size                              : 511 MiB (9%)
    Title                                    : TW Mandarin
    Language                                 : Chinese
    Default                                  : No
    Forced                                   : No

    Text #1
    ID                                       : 4
    Format                                   : UTF-8
    Codec ID                                 : S_TEXT/UTF8
    Codec ID/Info                            : UTF-8 Plain Text
    Title                                    : CHS
    Language                                 : Chinese
    Default                                  : No
    Forced                                   : No

    Text #2
    ID                                       : 5
    Format                                   : UTF-8
    Codec ID                                 : S_TEXT/UTF8
    Codec ID/Info                            : UTF-8 Plain Text
    Title                                    : CHT
    Language                                 : Chinese
    Default                                  : No
    Forced                                   : No

    Text #3
    ID                                       : 6
    Format                                   : UTF-8
    Codec ID                                 : S_TEXT/UTF8
    Codec ID/Info                            : UTF-8 Plain Text
    Language                                 : English
    Default                                  : No
    Forced                                   : No

    Menu
    00:00:00.000                             : en:00:00:00.000
    00:09:15.292                             : en:00:09:15.292
    00:18:54.833                             : en:00:18:54.833
    00:26:50.417                             : en:00:26:50.417
    00:36:48.000                             : en:00:36:48.000
    00:47:23.542                             : en:00:47:23.542
    00:56:57.292                             : en:00:56:57.292
    01:06:34.792                             : en:01:06:34.792
    01:16:38.667                             : en:01:16:38.667
    01:24:52.292                             : en:01:24:52.292
    01:33:00.958                             : en:01:33:00.958
    01:42:42.542                             : en:01:42:42.542

    Скриншоты:

    Каталог Новинок (Фильмы-трейлеры, Игры, Сериалы, Мультфильмы)

    © Оформление by Raven
    pb.wtf



  • Скачать Душа через торрент http://i66.fastpic.ru/big/2014/0716/7f/0783def8e33af9e16d8b0c0237f7a57f.jpg Скачать фильм Душа через торрент бесплантно в хорошем качестве Описание:Ачуань, шеф-повар дорогого японского ресторана, падает в обморок, а врач в больнице диагностирует у него депрессию. Друзья отвозят ... 10 10 3
    Торрент: Зарегистрирован [2014-07-16 16:14] · скачан: 17 раз
    Статус: √ проверено
    Размер: 5.35 GB
    Как cкачать? Как скачать Душа через торрент | qTorrent

    28-11-2019 20:33  

    Отключить всю рекламу на сайте

      Дорогой пользователь! Огромная просьба, поблагодарите релизера, оцените раздачу и оставьте свои комментарий, если Вы скачали Душа через торрент бесплатно! Внесите свою лепту в развитие PiratBit!
      Комментировать посты могут только пользователи прошедшие не сложную регистрацию
      Показать сообщения:    

      Душа через торрент
      Скачать бесплатно Душа
      Душа скачать торрент
      Душа смотреть онлайн
      Cкачать фильм Душа бесплатно
      Душа скачать торрент в хорошем качестве
      Душа смотреть онлайн бесплатно в хорошем качестве


      Вы не можете начинать темы
      Вы не можете отвечать на сообщения
      Вы не можете редактировать свои сообщения
      Вы не можете удалять свои сообщения
      Вы не можете голосовать в опросах
      Вы не можете прикреплять файлы к сообщениям
      Вы можете скачивать файлы