2 сезон

iTunes

MVO

1

2 сезон

iTunes

iTunes

1 сезон

RePack

30

Новинка

ВАЖНО

ИГРА 18+

pack

RePack

MK11
pack

Легкие деньги

RePack

jed

RePack

fifa19

RePack

RDR2

RePack

NEED FOR SPEED™ PAYBACK

4 сезон

9 сезон

Бесстыжие 9 сезон

Все сериалы

все сериалы на PB.wtf

RePack

FAR CRY 5

Anonymous, добрый вечер, мы не успеваем собрать деньги на оплату серверов за декабрь и январь, помогите нам пожалуйста в это трудное время. В качестве благодарности мы отключим Вам всю рекламу на сайте (укажите свой ник в строку Ваше имя)!

×
  
Magnet ссылка

Черные метки / The Art of the Steal (Джонатан Собол) [2013 г., комедия, криминал, HDRip, Профессиональный многоголосый] iTunes pb.wtf

Черные метки через торрент pb.wtf

Размер: 466 MB | Добавлен: 6 лет 6 мес. назад | Торрент скачан:48 раз
Скачать  

17-07-2014 08:57 Черные метки Скачать торрент  

Черные метки / The Art of the Steal

Год выпуска: 2013
Страна: Канада, США
Жанр: Комедия, криминал
Продолжительность: 01:30:14
Перевод: Профессиональный многоголосый iTunes

Режиссер: Джонатан Собол
Продюссер: Николас Табаррок, Леа Джаунземс, Марек Посивал
Сценарий: Джонатан Собол
Премьера в мире: 11 сентября 2013

IMDB 6.30 (9203)


В ролях: Курт Рассел, Джей Барушель, Мэтт Диллон, Крис Диамантополос, Кеннет Уэлш, Джейсон Джонс, Теренс Стэмп, Кэтрин Уинник, Девон Бостик, Эль Даунс

Описание: Фильм рассказывает о байкере-сорвиголове, специализирующемся на краже произведений искусства. Он уже было собрался завязать с преступным прошлым, но все-таки не находит в себе силы отказаться от осуществления еще одной очень заманчивой кражи вместе со своим неблагонадежным братцем. Все в итоге идет наперекосяк, поскольку оказывается, что у каждого из братьев свой план.



Качество: HDRip
Формат: MP4
Видео кодек: AVC
Аудио кодек: AAC LC
Видео: AVC, 640x264 (2.40:1), 23.976 fps, 589 Kbps (0.145 bit/pixel)
Аудио: AAC LC, 44.1 KHz, 2 ch, 128 Kbps, VBR
x264 [info]: profile High, level 4.1
x264 [info]: frame I:1279 Avg QP:13.60 size: 26939
x264 [info]: frame P:31598 Avg QP:17.43 size: 6425
x264 [info]: frame B:96931 Avg QP:20.41 size: 1662
x264 [info]: consecutive B-frames: 2.6% 3.4% 7.7% 46.0% 16.7% 16.5% 2.5% 1.9% 0.6% 0.8% 1.3%
x264 [info]: ref P L0: 54.8% 11.4% 13.0% 6.4% 4.4% 4.0% 3.1% 2.5% 0.4% 0.0%
x264 [info]: ref B L0: 80.3% 9.2% 4.8% 2.3% 1.8% 1.0% 0.6%
x264 [info]: ref B L1: 93.4% 6.6%
x264 [info]: kb/s:588.90
Формат : MPEG-4
Профиль формата : Base Media
Идентификатор кодека : isom
Размер файла : 466 Мбайт
Продолжительность : 1 ч. 30 м.
Режим общего битрейта : Переменный
Общий поток : 723 Кбит/сек
Программа кодирования : Lavf53.19.0

Видео
Идентификатор : 1
Формат : AVC
Формат/Информация : Advanced Video Codec
Профиль формата : High@L4.1
Параметр CABAC формата : Да
Параметр ReFrames формата : 8 кадров
Идентификатор кодека : avc1
Идентификатор кодека/Информация : Advanced Video Coding
Продолжительность : 1 ч. 30 м.
Продолжительность оригинала : 4 м. 20 с.
Битрейт : 589 Кбит/сек
Ширина : 640 пикселей
Высота : 264 пикселя
Соотношение сторон : 2,40:1
Режим частоты кадров : Постоянный
Частота кадров : 23,976 кадра/сек
Цветовое пространство : YUV
Субдискретизация насыщенности : 4:2:0
Битовая глубина : 8 бит
Тип развёртки : Прогрессивная
Бит/(Пиксели*Кадры) : 0.145
Размер потока : 380 Мбайт (82%)
Размер потока оригинала : 380 Мбайт (82%)
Библиотека кодирования : x264 core 130 r2273 b3065e6
Настройки программы : cabac=1 / ref=8 / deblock=1:-3:-3 / analyse=0x3:0x133 /
me=umh / subme=9 / psy=1 / psy_rd=1.00:0.00 / mixed_ref=1 / me_range=24 / chroma_me=1 /
trellis=1 / 8x8dct=1 / cqm=0 / deadzone=21,11 / fast_pskip=1 / chroma_qp_offset=-2 / threads=3 /
lookahead_threads=1 / sliced_threads=0 / nr=0 / decimate=1 / interlaced=0 / bluray_compat=0 /
constrained_intra=0 / bframes=10 / b_pyramid=2 / b_adapt=2 / b_bias=0 / direct=3 / weightb=1 /
open_gop=0 / weightp=2 / keyint=250 / keyint_min=23 / scenecut=40 / intra_refresh=0 /
rc_lookahead=60 / rc=crf / mbtree=1 / crf=18.0 / qcomp=0.60 / qpmin=0 / qpmax=69 / qpstep=4 /
ip_ratio=1.40 / aq=1:1.00
mdhd_Duration : 5414084

Аудио
Идентификатор : 2
Формат : AAC
Формат/Информация : Advanced Audio Codec
Профиль формата : LC
Идентификатор кодека : 40
Продолжительность : 1 ч. 30 м.
Вид битрейта : Переменный
Битрейт : 128 Кбит/сек
Каналы : 2 канала
Расположение каналов : Front: L R
Частота : 44,1 КГц
Метод сжатия : С потерями
Размер потока : 82,6 Мбайт (18%)
Сэмпл / Трейлер pb.wtf



Скачать Черные метки через торрент http://i68.fastpic.ru/big/2014/0717/9e/270e34f0d2afaf15797bd9a2cbfacd9e.png Скачать фильм Черные метки через торрент бесплантно в хорошем качестве Описание: Фильм рассказывает о байкере-сорвиголове, специализирующемся на краже произведений искусства. Он уже было собрался завязать с ... 10 10 5
Торрент: Зарегистрирован [2014-07-17 08:57] · скачан: 48 раз
Статус: √ проверено
Размер: 466 MB
Как cкачать? Как скачать Черные метки через торрент | UTorrent

% Раздел Тема Автор DL S | L
Фильмы [HD 720p, 1080p] (Хороший звук DUB, MVO) [ 6.76 GB ] Черные метки / The Art of the Steal [2013 BDRip 1080p Многоголосый закадровый Ворон Скачать
1 | 1

28-11-2019 20:33  

Отключить всю рекламу на сайте

    Дорогой пользователь! Огромная просьба, поблагодарите релизера, оцените раздачу и оставьте свои комментарий, если Вы скачали Черные метки через торрент бесплатно! Внесите свою лепту в развитие PiratBit!
    Комментировать посты могут только пользователи прошедшие не сложную регистрацию
    Показать сообщения:    

    Черные метки через торрент
    Скачать бесплатно Черные метки
    Черные метки скачать торрент
    Черные метки смотреть онлайн
    Cкачать фильм Черные метки бесплатно
    Черные метки скачать торрент в хорошем качестве
    Черные метки смотреть онлайн бесплатно в хорошем качестве


    Вы не можете начинать темы
    Вы не можете отвечать на сообщения
    Вы не можете редактировать свои сообщения
    Вы не можете удалять свои сообщения
    Вы не можете голосовать в опросах
    Вы не можете прикреплять файлы к сообщениям
    Вы можете скачивать файлы