Всегда рабочее зеркало без VPN и Proxy просто перед .vidak.icu напиши любое слово или цифру, Пример http://zzuo.vidak.icu

MVO

2 сезон

2 сезон

1

1 сезон

iTunes

2 сезон

13

1 сезон

Deluxe

pack

Рекомендуем

Пиратка

30

ВАЖНО

RePack

MK11

RePack

jed

RePack

fifa19

RePack

RDR2

RePack

NEED FOR SPEED™ PAYBACK

Кинопоиск HD

6 сезон

 Острые козырьки 6 сезон

Все сериалы

все сериалы на PB.wtf

RePack

FAR CRY 5

Anonymous, нам критически не хватает 5601 руб. на оплату серверов и переферии за Апрель, помоги нам пожалуйста, вся надежда только на тебя. В благодарность мы отключим тебе всю рекламу на сайте!

×
  
Magnet ссылка

Черные метки / The Art of the Steal (Джонатан Собол / Jonathan Sobol) [2014 г., Комедия, криминал, BDRip-AVC] MVO pb.wtf

Черные метки через торрент pb.wtf

Размер: 1.42 GB | Добавлен: 7 лет 9 мес. назад | Торрент скачан:581 раз
Смотреть онлайн Черные метки | Скачать    Ребята, помогите собрать деньги на оплату серверов!!!

17-07-2014 15:20 Черные метки Скачать торрент  

Черные метки / The Art of the Steal
Год выпуска: 2014
Страна: Канада, США / Weinstein Company, The, Sony Pictures, Entertainment One
Жанр: Комедия, криминал
Продолжительность: 01:30:15
Перевод: Профессиональный многоголосый [iTunes]
Субтитры: Aнглийские (SDH)

Режиссер: Джонатан Собол / Jonathan Sobol

В ролях: Курт Рассел, Мэтт Диллон, Теренс Стэмп, Джей Барушель, Кэтрин Уинник, Крис Диамантополос, Кеннет Уэлш, Джейсон Джонс, Девон Бостик, Керин Двайер

Описание: Фильм рассказывает о байкере-сорвиголове, специализирующемся на краже произведений искусства. Он уже было собрался завязать с преступным прошлым, но все-таки не находит в себе силы отказаться от осуществления еще одной очень заманчивой кражи вместе со своим неблагонадежным братцем. Все в итоге идет наперекосяк, поскольку оказывается, что у каждого из братьев свой план.



Качество: BDRip-AVC
Формат: MKV
Видео кодек: H.264
Аудио кодек: AC3
Видео: 1032x430 (2,40:1), 24,000 fps, 1419 Кbps, 0.133 bit/pixel
Аудио: 48 kHz, AC3 Dolby Digital, 3/2 (L,C,R,l,r) + LFE ch, 384.00 kbps

Релиз группы:
Автор рипа: potroks

Общее
Уникальный идентификатор : 219223408305170153155939295658248602169 (0xA4ECE48523D9244E94D7F28E6A258239)
Полное имя : Chyornyie.Metki.2013.DUAL.BDRip.x264.-HELLYWOOD.mkv
Формат : Matroska
Версия формата : Version 4 / Version 2
Размер файла : 1,42 Гбайт
Продолжительность : 1 ч. 30 м.
Общий поток : 2251 Кбит/сек
Название фильма : The Art of the Steal (2013) - HELLYWOOD
Дата кодирования : UTC 2014-07-17 14:39:49
Программа кодирования : mkvmerge v5.9.0 ('On The Loose') built on Dec 15 2012 16:39:58
Библиотека кодирования : libebml v1.3.0 + libmatroska v1.4.0

Видео
Идентификатор : 1
Формат : AVC
Формат/Информация : Advanced Video Codec
Профиль формата : High@L4.1
Параметр CABAC формата : Да
Параметр ReFrames формата : 10 кадров
Идентификатор кодека : V_MPEG4/ISO/AVC
Продолжительность : 1 ч. 30 м.
Битрейт : 1419 Кбит/сек
Ширина : 1032 пикселя
Высота : 430 пикселей
Соотношение сторон : 2,40:1
Режим частоты кадров : Постоянный
Частота кадров : 23,976 кадра/сек
Цветовое пространство : YUV
Субдискретизация насыщенности : 4:2:0
Битовая глубина : 8 бит
Тип развёртки : Прогрессивная
Бит/(Пиксели*Кадры) : 0.133
Размер потока : 888 Мбайт (61%)
Заголовок : potroks
Библиотека кодирования : x264 core 130 r2273 b3065e6
Настройки программы : cabac=1 / ref=10 / deblock=1:-2:-1 / analyse=0x3:0x133 / me=umh / subme=11 / psy=1 / psy_rd=1.00:0.05 / mixed_ref=1 / me_range=32 / chroma_me=1 / trellis=2 / 8x8dct=1 / cqm=0 / deadzone=21,11 / fast_pskip=0 / chroma_qp_offset=-3 / threads=9 / lookahead_threads=6 / sliced_threads=0 / nr=0 / decimate=0 / interlaced=0 / bluray_compat=0 / constrained_intra=0 / bframes=11 / b_pyramid=2 / b_adapt=2 / b_bias=0 / direct=3 / weightb=1 / open_gop=0 / weightp=2 / keyint=250 / keyint_min=23 / scenecut=40 / intra_refresh=0 / rc_lookahead=60 / rc=2pass / mbtree=0 / bitrate=1419 / ratetol=1.0 / qcomp=0.70 / qpmin=0 / qpmax=69 / qpstep=4 / cplxblur=20.0 / qblur=0.5 / vbv_maxrate=20000 / vbv_bufsize=20000 / nal_hrd=none / ip_ratio=1.35 / pb_ratio=1.25 / aq=1:0.80
Язык : English
Default : Да
Forced : Нет

Аудио #1
Идентификатор : 2
Формат : AC-3
Формат/Информация : Audio Coding 3
Расширение режима : CM (complete main)
Параметр Endianness формата : Big
Идентификатор кодека : A_AC3
Продолжительность : 1 ч. 30 м.
Вид битрейта : Постоянный
Битрейт : 384 Кбит/сек
Каналы : 2 канала
Расположение каналов : Front: L R
Частота : 48,0 КГц
Битовая глубина : 16 бит
Метод сжатия : С потерями
Размер потока : 248 Мбайт (17%)
Заголовок : MVO | DD 5.1 @ 384 kbps - iTunes
Язык : Russian
Default : Да
Forced : Нет

Аудио #2
Идентификатор : 3
Формат : AC-3
Формат/Информация : Audio Coding 3
Расширение режима : CM (complete main)
Параметр Endianness формата : Big
Идентификатор кодека : A_AC3
Продолжительность : 1 ч. 30 м.
Вид битрейта : Постоянный
Битрейт : 448 Кбит/сек
Каналы : 6 каналов
Расположение каналов : Front: L C R, Side: L R, LFE
Частота : 48,0 КГц
Битовая глубина : 16 бит
Метод сжатия : С потерями
Размер потока : 289 Мбайт (20%)
Заголовок : Original | DD 5.1 @ 448 kbps
Язык : English
Default : Нет
Forced : Нет

Текст #1
Идентификатор : 4
Формат : UTF-8
Идентификатор кодека : S_TEXT/UTF8
Идентификатор кодека/Информация : UTF-8 Plain Text
Заголовок : SDH
Язык : English
Default : Нет
Forced : Нет

Текст #2
Идентификатор : 5
Формат : UTF-8
Идентификатор кодека : S_TEXT/UTF8
Идентификатор кодека/Информация : UTF-8 Plain Text
Заголовок : SDH-Colored
Язык : English
Default : Нет
Forced : Нет

Меню
00:05:06.347 : en:(01)00:05:06:347
00:10:32.256 : en:(02)00:10:32:256
00:17:03.480 : en:(03)00:17:03:480
00:21:52.352 : en:(04)00:21:52:352
00:27:33.068 : en:(05)00:27:33:068
00:33:23.793 : en:(06)00:33:23:793
00:41:40.539 : en:(07)00:41:40:539
00:46:21.528 : en:(08)00:46:21:528
00:50:57.429 : en:(09)00:50:57:429
00:56:38.728 : en:(10)00:56:38:728
01:02:27.827 : en:(11)01:02:27:827
01:07:25.374 : en:(12)01:07:25:374
01:12:30.179 : en:(13)01:12:30:179
01:18:13.897 : en:(14)01:18:13:897
01:23:54.070 : en:(15)01:23:54:070
01:30:13.783 : en:(16)01:30:13:783

pb.wtf
!Raven писал(а):

Добавьте постер+ минимум 3 скриншота



Скачать Черные метки через торрент http://i67.fastpic.ru/big/2014/0718/3c/b4d0dc697bc4f86b4bbf8801b042a33c.png Скачать, смотреть онлайн Черные метки бесплантно в хорошем качестве Описание: Фильм рассказывает о байкере-сорвиголове, специализирующемся на краже произведений искусства. Он уже было собрался завязать с ... 9.6 10 19
Info! Золотая раздача, скачанное не засчитывается.
Торрент: Зарегистрирован [2014-07-18 06:34] · скачан: 581 раз
Статус: √ проверено
Размер: 1.42 GB
Как cкачать? Как скачать Черные метки через торрент | UTorrent

% Раздел Тема Автор DL S | L
Фильмы 2013 [DVDrip, WEB-DLRip, HDrip] [ 1.45 GB ] Черные метки / The Art of the Steal [2013 BDRip-AVC от sokol_ok] MVO [] sokol_ok Скачать
2 | 0
Фильмы 2013 [DVDrip, WEB-DLRip, HDrip] [ 2.18 GB ] Черные метки / The Art of the Steal [2013 BDRip-AVC от sokol_ok] MVO [] sokol_ok Скачать
2 | 0


Последний раз редактировалось: potroks (2014-07-18 00:48), всего редактировалось 1 раз

28-11-2019 20:33  

Отключить всю рекламу на сайте

17-07-2014 15:23 Черные метки Скачать торрент  

    Дорогой пользователь! Огромная просьба, поблагодарите релизера, оцените раздачу и оставьте свои комментарий, если Вы скачали Черные метки через торрент бесплатно!
    Комментировать посты могут только пользователи прошедшие не сложную регистрацию
    Показать сообщения:    

    Черные метки через торрент
    Скачать бесплатно Черные метки
    Черные метки скачать торрент
    Черные метки смотреть онлайн
    Cкачать фильм Черные метки бесплатно
    Черные метки скачать торрент в хорошем качестве
    Черные метки смотреть онлайн бесплатно в хорошем качестве


    Вы не можете начинать темы
    Вы не можете отвечать на сообщения
    Вы не можете редактировать свои сообщения
    Вы не можете удалять свои сообщения
    Вы не можете голосовать в опросах
    Вы не можете прикреплять файлы к сообщениям
    Вы можете скачивать файлы