Всегда рабочее зеркало просто перед .vidak.icu напиши любое слово или цифру, Пример http://1au.vidak.icu

>

7.4

iTunes

7.4

2 сезон

9.4

1 сезон

1

7.4

2 сезон

7.2

iTunes

6.0

MVO

13

6.1

iTunes

8.3

Пиратка

30

ULTIMATE

pack

9.9

Лицензия

ВАЖНО

ИГРА 18+

pack

7.3

RePack

MK11

7.7

RePack

jed

7.8

RePack

fifa19

8.5

RePack

RDR2

RePack

NEED FOR SPEED™ PAYBACK

1 сезон

9 сезон

Бесстыжие 9 сезон

Все сериалы

все сериалы на PB.wtf

RePack

FAR CRY 5

Anonymous, доброе утро, мы катастрофически не успеваем собрать деньги на оплату серверов, помогите нам пожалуйста 5,10,15р., для нас важна любая помощь . В качестве благодарности мы отключим Вам всю рекламу на сайте (укажите свой ник в строку Ваше имя)!

×
  
Magnet ссылка

Полный облом / Big Nothing (Жан-Баптист Андреа / Jean-Baptiste Andrea) [2006 г., триллер, комедия, криминал, BDRip] [AVO] (К.Филонов) pb.wtf

Полный облом через торрент pb.wtf

Размер: 1.26 GB | Добавлен: 7 лет 6 мес. назад | Торрент скачан:110 раз
Смотреть онлайн Полный облом | Скачать    Ребята, помогите собрать деньги на оплату серверов!!!

17-07-2014 21:22 Полный облом Скачать торрент  


Полный облом
Big Nothing


Год выпуска: 2006
Страна: Великобритания
Жанр: триллер, комедия, криминал
Продолжительность: 01:21:59
Перевод: Авторский (одноголосый) [Константин Филонов] *VOXSOLUS*
Субтитры: отсутствуют

Режиссеры: Жан-Баптист Андреа / Jean-Baptiste Andrea

В ролях: Дэвид Швиммер/David Schwimmer, Саймон Пегг/Simon Pegg, Элис Ив/Alice Eve, Джон Полито/Jon Polito, Наташа МакЭлхоун/Natascha McElhone, Мими Роджерс/Mimi Rogers, Билли Эшер/Billy Asher, Джулиан Гловер/Julian Glover, Сара Эдмондсон/Sarah Edmondson и др.

Описание: Что может быть страшнее для Чарли Вуда — школьного учителя, чем с треском вылететь с «любимой» работы и попрощаться с бандой малолетних спиногрызов? Только сидеть на шее у своей жены — копа, превратиться в домохозяйку и няню в одном лице. Или просиживать штаны в пыльной конторе до конца жизни…
Отличная перспектива! Но судьба все же слабо улыбнулась патологическому неудачнику. Наверное, она просто хотела над ним посмеяться. Жаль, что он сразу этого не понял…



Качество: BDRip с [Blu-Ray Remux/1080p]
Формат: AVI
Видео кодек: XviD
Аудио кодек: MP3
Видео: 720x304 (2.37:1), 25.015 fps, XviD build 50 ~2059 kbps avg, 0.38 bit/pixel
Аудио: 44.100 kHz, MPEG Layer 3, 2 ch, ~128 kbps avg

Цитата:

Авторская дорога взята из DVDRip-а Neki$h с тру,
Видеоряд от urban92 от туда же

General
Complete name : E:\INTERNET\Big Nothing.2006.BDRip.[AVO] (K.FILONOV).avi
Format : AVI
Format/Info : Audio Video Interleave
File size : 1.26 GiB
Duration : 1h 21mn
Overall bit rate : 2 197 Kbps
Writing application : VirtualDubMod 1.5.10.3 (build 2550/release)
Writing library : VirtualDubMod build 2550/release

Video
ID : 0
Format : MPEG-4 Visual
Format profile : Advanced Simple@L5
Format settings, BVOP : 1
Format settings, QPel : No
Format settings, GMC : No warppoints
Format settings, Matrix : Default (MPEG)
Codec ID : XVID
Codec ID/Hint : XviD
Duration : 1h 21mn
Bit rate : 2 060 Kbps
Width : 720 pixels
Height : 304 pixels
Display aspect ratio : 2.35:1
Frame rate : 25.015 fps
Original frame rate : 23.976 fps
Color space : YUV
Chroma subsampling : 4:2:0
Bit depth : 8 bits
Scan type : Progressive
Compression mode : Lossy
Bits/(Pixel*Frame) : 0.376
Stream size : 1.18 GiB (94%)
Writing library : XviD 1.2.1 (UTC 2008-12-04)

Audio
ID : 1
Format : MPEG Audio
Format version : Version 1
Format profile : Layer 3
Mode : Joint stereo
Mode extension : MS Stereo
Codec ID : 55
Codec ID/Hint : MP3
Duration : 1h 21mn
Bit rate mode : Constant
Bit rate : 128 Kbps
Channel(s) : 2 channels
Sampling rate : 44.1 KHz
Compression mode : Lossy
Stream size : 74.9 MiB (6%)
Alignment : Aligned on interleaves
Interleave, duration : 40 ms (1.00 video frame)
Interleave, preload duration : 522 ms
скриншот   скриншот   скриншот   скриншот   скриншот   скриншот   скриншот   скриншот  
Отдача всего 120-140 кбит/сек, так что без паники pb.wtf



Скачать Полный облом через торрент http://i66.fastpic.ru/big/2014/0718/1f/4288a212e8f471763890aff8fd13341f.jpg Скачать, смотреть онлайн Полный облом бесплантно в хорошем качестве Описание: Что может быть страшнее для Чарли Вуда — школьного учителя, чем с треском вылететь с «любимой» работы и попрощаться с бандой ... 10 10 3
Торрент: Зарегистрирован [2014-07-17 21:22] · скачан: 110 раз
Статус: √ проверено
Размер: 1.26 GB
Как cкачать? Как скачать Полный облом через торрент | UTorrent

% Раздел Тема Автор DL S | L
Фильмы [HD 720p, 1080p] (Хороший звук DUB, MVO) [ 9.34 GB ] Полный облом / Big Nothing [2006 BDRip 1080p] DUB 2 x AVO msltel Скачать
1 | 0
Фильмы [HD 720p, 1080p] (Хороший звук DUB, MVO) [ 3.98 GB ] Полный облом / Big Nothing [2006 BDRip 720p] DUB 2 x AVO msltel Скачать
1 | 0
Фильмы с авторской озвучкой [ 1.45 GB ] Полный облом / Big Nothing [2006 BDRip] [AVO] killermax2013 Скачать
1 | 0
Фильмы 2006-2008 [ 1.45 GB ] Полный облом / Big Nothing [2006 BDRip] DUB sokol_ok Скачать
1 | 0
Фильмы 2006-2008 [ 1.42 GB ] Полный облом / Big Nothing [2006 BDRip] feldeger Скачать
1 | 0
Фильмы [HD 720p, 1080p] (Хороший звук DUB, MVO) [ 4.63 GB ] Полный облом / Big Nothing [2006 BDRip] Flint3 Скачать
1 | 0

28-11-2019 20:33  

Отключить всю рекламу на сайте

    Дорогой пользователь! Огромная просьба, поблагодарите релизера, оцените раздачу и оставьте свои комментарий, если Вы скачали Полный облом через торрент бесплатно!
    Комментировать посты могут только пользователи прошедшие не сложную регистрацию
    Показать сообщения:    

    Полный облом через торрент
    Скачать бесплатно Полный облом
    Полный облом скачать торрент
    Полный облом смотреть онлайн
    Cкачать фильм Полный облом бесплатно
    Полный облом скачать торрент в хорошем качестве
    Полный облом смотреть онлайн бесплатно в хорошем качестве


    Вы не можете начинать темы
    Вы не можете отвечать на сообщения
    Вы не можете редактировать свои сообщения
    Вы не можете удалять свои сообщения
    Вы не можете голосовать в опросах
    Вы не можете прикреплять файлы к сообщениям
    Вы можете скачивать файлы