Всегда рабочее зеркало без VPN и Proxy просто перед .vidak.icu напиши любое слово или цифру, Пример http://hfqh.vidak.icu

MVO

2 сезон

1 сезон

1

1 сезон

iTunes

2 сезон

13

1 сезон

Распродажа

pack

Рекомендуем

Пиратка

30

ВАЖНО

RePack

MK11

RePack

jed

RePack

fifa19

RePack

RDR2

RePack

NEED FOR SPEED™ PAYBACK

Кинопоиск HD

6 сезон

 Острые козырьки 6 сезон

Все сериалы

все сериалы на PB.wtf

RePack

FAR CRY 5

Anonymous, нам критически не хватает 5601 руб. на оплату серверов и переферии за Апрель, помоги нам пожалуйста, вся надежда только на тебя. В благодарность мы отключим тебе всю рекламу на сайте!

×
  
Magnet ссылка

Рейд 2 / The Raid 2: Berandal (Гарет Эванс) [2014 г., Криминал, триллер, боевик, HDRip-AVC,Дубляж, Лицензия [iTunes] От R.G. PiratFilms pb.wtf

Рейд 2 через торрент pb.wtf

Размер: 2.11 GB | Добавлен: 7 лет 10 мес. назад | Торрент скачан:1348 раз
Смотреть онлайн Рейд 2 | Скачать    Ребята, помогите собрать деньги на оплату серверов!!!

18-07-2014 02:06 Рейд 2 Скачать торрент  

Рейд 2
Год выпуска: 2014
Страна: Индонезия / Pt. Merantau Films, XYZ Films
Жанр: Криминал, триллер, боевик
Продолжительность: 02:30:28
Перевод: Дубляж, Лицензия [iTunes]

Режиссер: Гарет Эванс

В ролях: Тио Пакусодево, Ока Антара, Дони Аламсях, Джули Эстелль, Яян Рухьян, Рюхэй Мацуда, Алекс Аббад, Арифин Путра, Сесеп Ариф Рахман, Ико Ювайс

Описание: Из трех полицейских, выбравшихся из кровавого ада первой части, в живых остается только офицер Рама. Уволившись из спецназа, он пробует начать жизнь заново, но вскоре прошлое жестко напоминает о себе - преступники убивают его брата. Чтобы отомстить, он внедряется в мощный криминальный синдикат, где быстро поднимается до самых вершин бандитской иерархии. Врагов здесь еще больше, и каждый неверный шаг может оказаться последним. Здесь нет ни близких, ни друзей, ни любви, ни тоски, ни жалости!

Качество: HDRip-AVC
Исходник :BDRip 1080р
Формат: MKV
Видео кодек: AVC
Аудио кодек: AC3
Видео: AVC, 1024x426 (2.40:1), 23.976 fps, 1 622 Kbps (0.155 bit/pixel)
Аудио : AC-3, 48.0 KHz, 6 ch, 384 Kbps, CBR
Релиз от:
скриншот   скриншот   скриншот   скриншот   скриншот   скриншот   скриншот  

Код:

---[Information] [18.07.2014 3:53:50] x264 [info]: frame I:1375  Avg QP:13.29  size: 50473  PSNR Mean Y:50.00 U:52.75 V:53.21 Avg:50.75 Global:50.26
---[Information] [18.07.2014 3:53:50] x264 [info]: frame P:45501 Avg QP:16.61  size: 17230  PSNR Mean Y:47.63 U:51.17 V:51.53 Avg:48.51 Global:47.92
---[Information] [18.07.2014 3:53:50] x264 [info]: frame B:169579 Avg QP:18.35  size:  5760  PSNR Mean Y:47.29 U:51.01 V:51.39 Avg:48.18 Global:47.53
---[Information] [18.07.2014 3:53:50] x264 [info]: consecutive B-frames:  2.4%  2.5%  6.4% 23.1% 13.2% 24.7%  6.5% 13.6%  2.0%  1.5%  1.3%  2.4%  0.6%

Общее
Уникальный идентификатор                 : 220432502312225988994058901156212980566 (0xA5D5C17506C7C86AB520929001B73B56)
Полное имя                               : D:\рипы От R.G. PiratFilms\The Raid 2 Berandal 2014.HDRip-AVC.by.White Smoke.R.G. PiratFilms.mkv
Формат                                   : Matroska
Версия формата                           : Version 4 / Version 2
Размер файла                             : 2,11 Гбайт
Продолжительность                        : 2 ч. 30 м.
Общий поток                              : 2008 Кбит/сек
Название фильма                          : The Raid 2: Berandal 2014 HDR BDRip 1080p
Дата кодирования                         : UTC 2014-07-24 03:39:59
Программа кодирования                    : mkvmerge v6.8.0 ('Theme for Great Cities') 64bit built on Mar  2 2014 21:34:26
Библиотека кодирования                   : libebml v1.3.0 + libmatroska v1.4.1
Обложка                                  : Yes

Видео
Идентификатор                            : 1
Формат                                   : AVC
Формат/Информация                        : Advanced Video Codec
Профиль формата                          : High@L4.1
Параметр CABAC формата                   : Да
Параметр ReFrames формата                : 12 кадров
Идентификатор кодека                     : V_MPEG4/ISO/AVC
Продолжительность                        : 2 ч. 30 м.
Битрейт                                  : 1622 Кбит/сек
Ширина                                   : 1024 пикселя
Высота                                   : 426 пикселей
Соотношение сторон                       : 2,40:1
Режим частоты кадров                     : Постоянный
Частота кадров                           : 23,976 кадра/сек
Цветовое пространство                    : YUV
Субдискретизация насыщенности            : 4:2:0
Битовая глубина                          : 8 бит
Тип развёртки                            : Прогрессивная
Бит/(Пиксели*Кадры)                      : 0.155
Размер потока                            : 1,66 Гбайт (79%)
Библиотека кодирования                   : x264 core 142 r2431 ac76440
Настройки программы                      : cabac=1 / ref=12 / deblock=1:-3:-3 / analyse=0x3:0x113 / me=hex / subme=7 / psy=1 / psy_rd=1.00:0.00 / mixed_ref=1 / me_range=16 / chroma_me=1 / trellis=1 / 8x8dct=1 / cqm=0 / deadzone=21,11 / fast_pskip=1 / chroma_qp_offset=-2 / threads=12 / lookahead_threads=3 / sliced_threads=0 / nr=0 / decimate=1 / interlaced=0 / bluray_compat=0 / constrained_intra=0 / bframes=12 / b_pyramid=2 / b_adapt=2 / b_bias=12 / direct=1 / weightb=1 / open_gop=0 / weightp=2 / keyint=240 / keyint_min=23 / scenecut=40 / intra_refresh=0 / rc_lookahead=40 / rc=2pass / mbtree=1 / bitrate=1622 / ratetol=1.0 / qcomp=0.65 / qpmin=0 / qpmax=69 / qpstep=4 / cplxblur=20.0 / qblur=0.5 / ip_ratio=1.40 / aq=1:1.00
Язык                                     : English
Default                                  : Да
Forced                                   : Нет

Аудио
Идентификатор                            : 2
Формат                                   : AC-3
Формат/Информация                        : Audio Coding 3
Расширение режима                        : CM (complete main)
Параметр Endianness формата              : Big
Идентификатор кодека                     : A_AC3
Продолжительность                        : 2 ч. 30 м.
Вид битрейта                             : Постоянный
Битрейт                                  : 384 Кбит/сек
Каналы                                   : 6 каналов
Расположение каналов                     : Front: L C R, Side: L R, LFE
Частота                                  : 48,0 КГц
Битовая глубина                          : 16 бит
Метод сжатия                             : С потерями
Размер потока                            : 413 Мбайт (19%)
Default                                  : Да
Forced                                   : Нет


За Обложку к релизу спасибо XLASERРаздача обновлена 24.07.2014 Дорожка заменена на Лицензию pb.wtf



Скачать Рейд 2 через торрент https://pic.kartinco.top/new/img/2014-07/18/ku6sdz65g3xhqd8dx7ciz5nvc.png Скачать, смотреть онлайн Рейд 2 бесплантно в хорошем качестве Описание: Из трех полицейских, выбравшихся из кровавого ада первой части, в живых остается только офицер Рама. Уволившись из спецназа, он ... 9.9 10 50
Info! Золотая раздача, скачанное не засчитывается.
Торрент: Зарегистрирован [2014-07-24 04:37] · скачан: 1 348 раз
Статус: √ проверено
Размер: 2.11 GB
Как cкачать? Как скачать Рейд 2 через торрент | UTorrent



Последний раз редактировалось: White Smoke (2014-07-24 04:36), всего редактировалось 1 раз

28-11-2019 20:33  

Отключить всю рекламу на сайте

18-07-2014 02:54 Рейд 2 Скачать торрент  

Где-то читал про этот фильм..так-что беруpb.wtf



19-07-2014 08:52 Рейд 2 Скачать торрент  

Первая часть была ОГОНЬ! А вторая судя по трейлеру должна быть ещё круче.pb.wtf



24-07-2014 05:14 Рейд 2 Скачать торрент  

много лишнего, половину бы вырезать и клево, а так фильм норм!pb.wtf



13-06-2015 09:29 Рейд 2 Скачать торрент  

Фильм достоин просмотра так же как и первая часть. Актер чем-то напоминает Тони Джа. Всем приятного киносеанса.pb.wtf



    Дорогой пользователь! Огромная просьба, поблагодарите релизера, оцените раздачу и оставьте свои комментарий, если Вы скачали Рейд 2 через торрент бесплатно!
    Комментировать посты могут только пользователи прошедшие не сложную регистрацию
    Показать сообщения:    

    Рейд 2 через торрент
    Скачать бесплатно Рейд 2
    Рейд 2 скачать торрент
    Рейд 2 смотреть онлайн
    Cкачать фильм Рейд 2 бесплатно
    Рейд 2 скачать торрент в хорошем качестве
    Рейд 2 смотреть онлайн бесплатно в хорошем качестве


    Вы не можете начинать темы
    Вы не можете отвечать на сообщения
    Вы не можете редактировать свои сообщения
    Вы не можете удалять свои сообщения
    Вы не можете голосовать в опросах
    Вы не можете прикреплять файлы к сообщениям
    Вы можете скачивать файлы