Всегда рабочее зеркало без VPN и Proxy просто перед .vidak.icu напиши любое слово или цифру, Пример http://p680.vidak.icu

MVO

2 сезон

2 сезон

1

1 сезон

iTunes

2 сезон

13

1 сезон

Распродажа

pack

Рекомендуем

Пиратка

30

ВАЖНО

RePack

MK11

RePack

jed

RePack

fifa19

RePack

RDR2

RePack

NEED FOR SPEED™ PAYBACK

Кинопоиск HD

6 сезон

 Острые козырьки 6 сезон

Все сериалы

все сериалы на PB.wtf

RePack

FAR CRY 5

Anonymous, нам критически не хватает 5601 руб. на оплату серверов и переферии за Апрель, помоги нам пожалуйста, вся надежда только на тебя. В благодарность мы отключим тебе всю рекламу на сайте!

×
  
Magnet ссылка

Я не вернусь (Ильмар Рааг) [2014, Россия, Эстония, Финляндия, Беларусь, драма, WEBRip] pb.wtf

Я не вернусь через торрент pb.wtf

Размер: 1.46 GB | Добавлен: 7 лет 10 мес. назад | Торрент скачан:835 раз
Смотреть онлайн Я не вернусь | Скачать    Ребята, помогите собрать деньги на оплату серверов!!!

18-07-2014 03:46 Я не вернусь Скачать торрент  

Я не вернусь


  • Год выпуска: 2014
  • Страна: Россия, Эстония, Финляндия, Беларусь
  • Жанр: драма
  • Продолжительность: 01:45:05
  • Перевод: Не требуется

  • Режиссер: Ильмар Рааг
  • В ролях:

    Полина Пушкарук (Аня), Вика Лобачева (Кристина), Андрей Астраханцев (Андрей Люциус), Сергей Яценюк (Дима Морозов), Ольга Белинская (Наталья Ивановна), Алла Еминцева (жена Андрея), Саша Лесникова (дочь Андрея), Юрий Орлов (следователь), Галина Мочалова (бабушка Кристины), Татьяна Зыкова (Кошка), Лиана Сергеева (Верка), Дарья Гаврилова (Алена)

  • Описание:
    Аня - красивая успешная девушка, учится в аспирантуре, читает лекции по Байрону, и у нее роман с профессором, но в один момент ее жизнь переворачивается, и чтобы избежать ложного обвинения, она убегает, прикинувшись подростком-беспризорником. Маска тинэйджера и знакомство с такой же отчаянной, но действительно маленькой Кристиной обращает бегство девушки в новый путь: заново пережив отрочество, Аня начисто переписывает свою жизнь.
  • Рейтинг:



  • Качество: WEBRip
  • Формат: :AVI
  • Видео кодек: XviD
  • Аудио кодек: AC3
  • Видео: 720x304 (2.35:1), 1785 kbps, 25 fps, 0,326 bpp
  • Аудио: 2.0 / 48 kHz / 192 kbps / 16 bit
  • Релиз от: GEKADOL

    Код:

    General
    Complete name                            : D:\Фильмы\Я не вернусь.avi
    Format                                   : AVI
    Format/Info                              : Audio Video Interleave
    File size                                : 1.46 GiB
    Duration                                 : 1h 45mn
    Overall bit rate                         : 1 988 Kbps
    Writing application                      : VirtualDubMod 1.5.10.3 | www.virtualdub-fr.org || (build 2550/release)
    Writing library                          : VirtualDubMod build 2550/release

    Video
    ID                                       : 0
    Format                                   : MPEG-4 Visual
    Format profile                           : Advanced Simple@L5
    Format settings, BVOP                    : 2
    Format settings, QPel                    : No
    Format settings, GMC                     : No warppoints
    Format settings, Matrix                  : Default (MPEG)
    Codec ID                                 : XVID
    Codec ID/Hint                            : XviD
    Duration                                 : 1h 45mn
    Bit rate                                 : 1 786 Kbps
    Width                                    : 720 pixels
    Height                                   : 304 pixels
    Display aspect ratio                     : 2.35:1
    Frame rate                               : 25.000 fps
    Color space                              : YUV
    Chroma subsampling                       : 4:2:0
    Bit depth                                : 8 bits
    Scan type                                : Progressive
    Compression mode                         : Lossy
    Bits/(Pixel*Frame)                       : 0.326
    Stream size                              : 1.31 GiB (90%)
    Writing library                          : XviD 1.2.1 (UTC 2008-12-04)

    Audio
    ID                                       : 1
    Format                                   : AC-3
    Format/Info                              : Audio Coding 3
    Mode extension                           : CM (complete main)
    Codec ID                                 : 2000
    Duration                                 : 1h 45mn
    Bit rate mode                            : Constant
    Bit rate                                 : 192 Kbps
    Channel(s)                               : 2 channels
    Channel positions                        : Front: L R
    Sampling rate                            : 48.0 KHz
    Bit depth                                : 16 bits
    Compression mode                         : Lossy
    Stream size                              : 144 MiB (10%)
    Alignment                                : Split accross interleaves
    Interleave, duration                     : 40 ms (1.00 video frame)
    Interleave, preload duration             : 500 ms


    Скриншоты:
    скриншот   скриншот   скриншот   скриншот   скриншот   скриншот   скриншот   скриншот   скриншот   скриншот  


    pb.wtf



  • Скачать Я не вернусь через торрент https://pic1.kartinco.top/images/61/zfs7m.jpg Скачать, смотреть онлайн Я не вернусь бесплантно в хорошем качестве Описание: Аня - красивая успешная девушка, учится в аспирантуре, читает лекции по Байрону, и у нее роман с профессором, но в один момент ... 9.9 10 16
    Торрент: Зарегистрирован [2014-07-18 03:46] · скачан: 835 раз
    Статус: √ проверено
    Размер: 1.46 GB
    Как cкачать? Как скачать Я не вернусь через торрент | UTorrent

    % Раздел Тема Автор DL S | L
    Наши сериалы [ 33.64 GB ] Я вернусь / Сезон: 1 / Серии: 1-12 из 12 [2009 Военный HDTV 1080i] bober100 Скачать
    1 | 0
    Наши фильмы 2014 [ 1.67 GB ] Я не вернусь [2014 WEB-DLRip-AVC] Ворон Скачать
    1 | 0
    Наши фильмы 2014 [ 1.45 GB ] Я не вернусь [2014 WEB-DLRip] Ворон Скачать
    1 | 0
    T Наши фильмы (HD, WEB-DL 720p, 1080p) [ 3.23 GB ] Я не вернусь [2014 WEB-DL 1080p] Ворон Скачать
    1 | 0
    Наши фильмы 2014 [ 1.27 GB ] Я не вернусь [2014 DVDRip] Ворон Скачать
    1 | 0
    Наши фильмы 2014 [ 751 MB ] Я не вернусь [2014 WEB-DLRip] 19Diman Скачать
    1 | 0

    28-11-2019 20:33  

    Отключить всю рекламу на сайте

    18-07-2014 07:37 Я не вернусь Скачать торрент  

    Как кино, стоит внимания?pb.wtf



    19-07-2014 10:17 Я не вернусь Скачать торрент  

    Русское кино...бессмысленное и беспощадное.pb.wtf



    29-07-2014 10:04 Я не вернусь Скачать торрент  

    romario1979 писал(а):

    Русское кино...бессмысленное и беспощадное.

    а сам смотрел ? а то ,комментарий бессмыслено-беспощадное !pb.wtf



    03-08-2014 11:27 Я не вернусь Скачать торрент  

    Зацените,норм.
    С закосом под арт-хаус,но все же.pb.wtf



    03-08-2014 17:21 Я не вернусь Скачать торрент  

    romario1979 писал(а):

    Русское кино...бессмысленное и беспощадное.

    Чурка ты, не русский тогда и не смотри наше кино и не пиши чурбан.pb.wtf



    17-08-2014 12:34 Я не вернусь Скачать торрент  

    звук не какой...pb.wtf



      Дорогой пользователь! Огромная просьба, поблагодарите релизера, оцените раздачу и оставьте свои комментарий, если Вы скачали Я не вернусь через торрент бесплатно!
      Комментировать посты могут только пользователи прошедшие не сложную регистрацию
      Показать сообщения:    

      Я не вернусь через торрент
      Скачать бесплатно Я не вернусь
      Я не вернусь скачать торрент
      Я не вернусь смотреть онлайн
      Cкачать фильм Я не вернусь бесплатно
      Я не вернусь скачать торрент в хорошем качестве
      Я не вернусь смотреть онлайн бесплатно в хорошем качестве


      Вы не можете начинать темы
      Вы не можете отвечать на сообщения
      Вы не можете редактировать свои сообщения
      Вы не можете удалять свои сообщения
      Вы не можете голосовать в опросах
      Вы не можете прикреплять файлы к сообщениям
      Вы можете скачивать файлы