Достать ножи: Стеклянная луковица

MVO

Добыча

Дубляж

Уэнсдэй

1 сезон

Тор

Дубляж

13 клиническая

1 сезон

Жестокая ночь

MVO

Одни из нас

1 сезон

Deluxe

pack

Рекомендуем

30

Пиратка

ВАЖНО

ВАЖНО

Ghostwire

Пиратка

jed

RePack

nioh2

RePack

RDR2

RePack

NEED FOR SPEED™ PAYBACK

RePack

скачать торрент

Кинопоиск HD

Острые козырьки 6 сезон

6 сезон

FAR CRY 6

RePack

скачать торрент

Лицензия

скачать торрент

MVO

1

1 сезон

скачать торрент

1 сезон

скачать торрент

Лицензия

  

Лиззи Борден взяла топор / Lizzie Borden Took an Ax (Ник Гомез / Nick Gomez) [2014, США, триллер, драма, криминал, WEB-DLRip, Многоголосый, закадровый) ( iTunes)

Лиззи Борден взяла топор через торрент pb.wtf

Размер: 1.44 GB | Добавлен: 8 лет 6 мес. назад | Торрент скачан:324 раза
Смотреть онлайн | Скачать | Поддержите нас   

18-07-2014 11:44 Лиззи Борден взяла топор Скачать торрент  

Лиззи Борден взяла топор / Lizzie Borden Took an Ax


  • Год выпуска: 2014
  • Страна: США
  • Жанр: триллер, драма, криминал, детектив
  • Продолжительность: 01:27:03
  • Перевод: Многоголосый, закадровый) (iTunes)

  • Режиссер: Ник Гомез / Nick Gomez
  • В ролях:

    Кристина Риччи (Lizzie Borden), Клеа ДюВалл (Emma Borden), Грегг Генри (Hosea Knowlton), Стивен МакХэтти (Andrew Borden), Шон Дойл (Marshall Hilliard), Сара Ботсфорд (Abby Morse Borden), Hannah Anderson (Bridget Sullivan), Андреа Рунге (Alice Russell), Билл Кэмпбелл (Andrew Jennings), Jason Chemij (Soldier Mike), Emmy DeOliveira (Girl #2, озвучка), Эндрю Гиллис (Judge Mason)

  • Описание:
    Напряженная биографическая драма, рассказывающая о реально существующем нашумевшем деле об убийстве. Случай получил такую широкую огласку, что имя Лиззи Борден стало чуть ли не нарицательным и упоминалось в романах Агаты Кристи, Сидни Шелдона и Стивена Кинга. Что же такого сделала прилежная воспитанная девочка, если это настолько потрясло мировое сообщество? Лиззи Борден родилась в 1860 году в штате Массачусетс. Когда ей исполнилось два года, мать умерла, а отец Эндрю женился во второй раз. Как Лиззи не пыталась, она так и не смогла найти общего языка с мачехой, а вскоре узнала, что отец собирается завещать своей новой жене все свое состояние. В этот же день вечером служанка нашла труп мистера Бордена и его жены. Оба были изрублены топором. Приехавшая на место полиция решила, что у супругов были недоброжелатели и искала убийцу вне стен дома, но вскоре стала все больше и больше подозревать именно Лиззи…
  • Рейтинг:



  • Качество: WEB-DLRip
  • Формат: :AVI
  • Видео кодек: XviD
  • Аудио кодек: AC3
  • Видео: 720x400 (16:9), 1971 kbps, 23,976 fps, 0,286 bpp
  • Аудио: 5.1 / 48 kHz / 384 kbps / 16 bit
  • Релиз от: GEKADOL

    Код:

    General
    Complete name                            : H:\ТОРРЕНТЫ\Лиззи Борден.avi
    Format                                   : AVI
    Format/Info                              : Audio Video Interleave
    File size                                : 1.44 GiB
    Duration                                 : 1h 27mn
    Overall bit rate                         : 2 365 Kbps
    Writing application                      : VirtualDubMod 1.5.10.3 | www.virtualdub-fr.org || (build 2550/release)
    Writing library                          : VirtualDubMod build 2550/release

    Video
    ID                                       : 0
    Format                                   : MPEG-4 Visual
    Format profile                           : Advanced [email protected]
    Format settings, BVOP                    : 2
    Format settings, QPel                    : No
    Format settings, GMC                     : No warppoints
    Format settings, Matrix                  : Default (MPEG)
    Codec ID                                 : XVID
    Codec ID/Hint                            : XviD
    Duration                                 : 1h 27mn
    Bit rate                                 : 1 972 Kbps
    Width                                    : 720 pixels
    Height                                   : 400 pixels
    Display aspect ratio                     : 16:9
    Frame rate                               : 23.976 fps
    Color space                              : YUV
    Chroma subsampling                       : 4:2:0
    Bit depth                                : 8 bits
    Scan type                                : Progressive
    Compression mode                         : Lossy
    Bits/(Pixel*Frame)                       : 0.286
    Stream size                              : 1.20 GiB (83%)
    Writing library                          : XviD 1.2.1 (UTC 2008-12-04)

    Audio
    ID                                       : 1
    Format                                   : AC-3
    Format/Info                              : Audio Coding 3
    Mode extension                           : CM (complete main)
    Codec ID                                 : 2000
    Duration                                 : 1h 27mn
    Bit rate mode                            : Constant
    Bit rate                                 : 384 Kbps
    Channel(s)                               : 6 channels
    Channel positions                        : Front: L C R, Side: L R, LFE
    Sampling rate                            : 48.0 KHz
    Bit depth                                : 16 bits
    Compression mode                         : Lossy
    Stream size                              : 239 MiB (16%)
    Alignment                                : Split accross interleaves
    Interleave, duration                     : 42 ms (1.00 video frame)
    Interleave, preload duration             : 500 ms


    Скриншоты:





  • Скачать Лиззи Борден взяла топор через торрент http://i65.fastpic.ru/big/2014/0718/56/3ec5924d435f9d630b4df7baadaad756.jpg Скачать, смотреть онлайн Лиззи Борден взяла топор бесплантно в хорошем качестве Описание: Напряженная биографическая драма, рассказывающая о реально существующем нашумевшем деле об убийстве. Случай получил такую ... 9.9 10 9
    Торрент: Зарегистрирован [2014-07-18 11:44] · скачан: 324 раз
    Статус: √ проверено
    Размер: 1.44 GB
    Как cкачать? Как скачать Лиззи Борден взяла топор через торрент | UTorrent

    28-11-2019 20:33  


    Отключить вcю реклaмy на сайте, в т.ч. и в плеере онлайн просмотра!

      Дорогой пользователь! Огромная просьба, поблагодарите релизера, оцените раздачу и оставьте свои комментарий, если Вы скачали Лиззи Борден взяла топор через торрент бесплатно!!
      Комментировать посты могут только пользователи прошедшие не сложную регистрацию
      Показать сообщения:    


      Лиззи Борден взяла топор через торрент
      Скачать бесплатно Лиззи Борден взяла топор
      Лиззи Борден взяла топор скачать торрент
      Лиззи Борден взяла топор смотреть онлайн
      Cкачать фильм Лиззи Борден взяла топор бесплатно
      Лиззи Борден взяла топор скачать торрент в хорошем качестве
      Лиззи Борден взяла топор смотреть онлайн бесплатно в хорошем качестве
      Вы не можете начинать темы
      Вы не можете отвечать на сообщения
      Вы не можете редактировать свои сообщения
      Вы не можете удалять свои сообщения
      Вы не можете голосовать в опросах
      Вы не можете прикреплять файлы к сообщениям
      Вы можете скачивать файлы
      Лиззи Борден взяла топор / Lizzie Borden Took an Ax [2014, США, триллер, драма, криминал, WEB-DLRip, Многоголосый, закадровый) смотреть онлайн, скачать торрент picoco.icu