Ссылка на приватное зеркало нашего сайта всего за 1$. Внимание количество ограничено!!!

2 сезон

iTunes

1 сезон

1

iTunes

iTunes

iTunes

1 сезон

RePack

30

ИГРА 18+

pack

ВАЖНО

!!Акция!!

Alien_RageХит недели

RePack

MK11
pack

Забери бонус

RePack

jed

!!Акция!!

Alien_Rage

RePack

fifa19

RePack

Assassins Creed: Odyssey

RePack

NEED FOR SPEED™ PAYBACK

4 сезон

9 сезон

Бесстыжие 9 сезон

Все сериалы

все сериалы на PB.wtf

RePack

FAR CRY 5
  

Услуга / Favor (Пол Осборн / Paul Osborne) [2013, США, триллер, HDRip, Любительский (одноголосый)[datynet] pb.wtf

Услуга через торрент pb.wtf

Размер: 872 MB | Добавлен: 6 лет 3 мес. назад | Торрент скачан:75 раз
Скачать  

19-07-2014 03:16 Услуга Скачать торрент  

Услуга / Favor
«A friend helps you move. A good friend helps you move a body»


  • Год выпуска: 2013
  • Страна: США
  • Жанр: триллер
  • Продолжительность: 01:42:34
  • Перевод: Любительский (одноголосый)[datynet]

  • Режиссер: Пол Осборн / Paul Osborne
  • В ролях:

    Блэйн Уивер (Kip), Патрик Дэй (Marvin), Джеффри Комбс (Tad Harrison), Кристина Роуз (Kimber), Элисон Мартин (Pinback), Шерил Николс (Claire), Розали Уорд (Abby), Лесли Уиммер Осборн (Mindy), Эми Донеган (Misa), Мэтт Фендер (Jerry), Патрик Карлайл (Cole), Марк Елиас (Ben)

  • Описание:
    Размеренная жизнь Кипа оказывается в опасности, когда в результате несчастного случая погибает его любовница. В отчаянии он обращается к другу детства Марвину, безработному неудачнику, который соглашается помочь ему избавиться от трупа и замести следы преступления. Это решение и приводит к событиям, которые оба друга не могли даже представить...
  • Рейтинг:



  • Качество: HDRip
  • Формат: :AVI
  • Видео кодек: XviD
  • Аудио кодек: MP3
  • Видео: 640x352 (16:9), 986 kbps, 23,976 fps, 0,183 bpp
  • Аудио: 2.0 / 44 kHz / 192 kbps /
  • Релиз от: GEKADOL

    Код:

    General
    Complete name                            : H:\ТОРРЕНТЫ\Favor.2013.HDRip.avi
    Format                                   : AVI
    Format/Info                              : Audio Video Interleave
    File size                                : 872 MiB
    Duration                                 : 1h 42mn
    Overall bit rate                         : 1 188 Kbps
    Writing application                      : VirtualDubMod 1.5.10.2 (build 2542/release)
    Writing library                          : VirtualDub build 34753/release

    Video
    ID                                       : 0
    Format                                   : MPEG-4 Visual
    Format profile                           : Advanced Simple@L5
    Format settings, BVOP                    : 2
    Format settings, QPel                    : No
    Format settings, GMC                     : No warppoints
    Format settings, Matrix                  : Default (H.263)
    Muxing mode                              : Packed bitstream
    Codec ID                                 : XVID
    Codec ID/Hint                            : XviD
    Duration                                 : 1h 42mn
    Bit rate                                 : 987 Kbps
    Width                                    : 640 pixels
    Height                                   : 352 pixels
    Display aspect ratio                     : 16:9
    Frame rate                               : 23.976 fps
    Color space                              : YUV
    Chroma subsampling                       : 4:2:0
    Bit depth                                : 8 bits
    Scan type                                : Progressive
    Compression mode                         : Lossy
    Bits/(Pixel*Frame)                       : 0.183
    Stream size                              : 724 MiB (83%)
    Writing library                          : XviD 64

    Audio
    ID                                       : 1
    Format                                   : MPEG Audio
    Format version                           : Version 1
    Format profile                           : Layer 3
    Codec ID                                 : 55
    Codec ID/Hint                            : MP3
    Duration                                 : 1h 42mn
    Bit rate mode                            : Constant
    Bit rate                                 : 192 Kbps
    Channel(s)                               : 2 channels
    Sampling rate                            : 44.1 KHz
    Compression mode                         : Lossy
    Stream size                              : 141 MiB (16%)
    Alignment                                : Split accross interleaves
    Interleave, duration                     : 42 ms (1.00 video frame)
    Interleave, preload duration             : 500 ms


    Скриншоты:


    pb.wtf



  • Скачать Услуга через торрент http://i66.fastpic.ru/big/2014/0719/d3/14c1a970f25e80825c07598040750ad3.jpg Скачать фильм Услуга через торрент бесплантно в хорошем качестве Описание: Размеренная жизнь Кипа оказывается в опасности, когда в результате несчастного случая погибает его любовница. В отчаянии он ... 10 10 3
    Торрент: Зарегистрирован [2014-07-19 03:16] · скачан: 75 раз
    Статус: T временная
    Размер: 872 MB
    Как cкачать? Как скачать Услуга через торрент | qTorrent

    % Раздел Тема Автор DL S | L
    T Фильмы 2013 (Звук TS, Cam, VO, DVO) [ 2.08 GB ] Услуга / Favor [2013 HDRip Любительский одноголосый] coc900 Скачать
    1 | 0

    28-11-2019 20:33  

    Отключить всю рекламу на сайте

      Дорогой пользователь! Огромная просьба, поблагодарите релизера, оцените раздачу и оставьте свои комментарий, если Вы скачали Услуга через торрент бесплатно! Внесите свою лепту в развитие PiratBit!
      Комментировать посты могут только пользователи прошедшие не сложную регистрацию
      Показать сообщения:    

      Услуга через торрент
      Скачать бесплатно Услуга
      Услуга скачать торрент
      Услуга смотреть онлайн
      Cкачать фильм Услуга бесплатно
      Услуга скачать торрент в хорошем качестве
      Услуга смотреть онлайн бесплатно в хорошем качестве


      Вы не можете начинать темы
      Вы не можете отвечать на сообщения
      Вы не можете редактировать свои сообщения
      Вы не можете удалять свои сообщения
      Вы не можете голосовать в опросах
      Вы не можете прикреплять файлы к сообщениям
      Вы можете скачивать файлы