Ссылка на приватное зеркало нашего сайта всего за 1$. Внимание количество ограничено!!!

2 сезон

iTunes

1 сезон

1

iTunes

iTunes

iTunes

1 сезон

RePack

30

ИГРА 18+

pack

ВАЖНО

!!Акция!!

Alien_RageХит недели

RePack

MK11
pack

Забери бонус

RePack

jed

!!Акция!!

Alien_Rage

RePack

fifa19

RePack

Assassins Creed: Odyssey

RePack

NEED FOR SPEED™ PAYBACK

4 сезон

9 сезон

Бесстыжие 9 сезон

Все сериалы

все сериалы на PB.wtf

RePack

FAR CRY 5
  

Джек Стронг / Jack Strong (Владислав Пасиковский / Wladyslaw Pasikowski) [2014, Польша, боевик, драма, криминал, HDRip, Любительский (одноголосый)[Andi] pb.wtf

Джек Стронг через торрент pb.wtf

Размер: 1.37 GB | Добавлен: 6 лет 3 мес. назад | Торрент скачан:100 раз
Скачать  

19-07-2014 03:32 Джек Стронг Скачать торрент  

Джек Стронг / Jack Strong


  • Год выпуска: 2014
  • Страна: Польша
  • Жанр: боевик, драма, криминал, детектив, биография
  • Продолжительность: 02:07:43
  • Перевод: Любительский (одноголосый)[Andi]

  • Режиссер: Владислав Пасиковский / Wladyslaw Pasikowski
  • В ролях:

    Марчин Дорочиньский (Ryszard Kuklinski), Майя Осташевска (Hanna Kuklinska), Патрик Уилсон (Daniel), Дмитрий Биллов (Ivanov), Дагмара Доминчик (Sue), Олег Масленников (Kulikov), Кшиштоф Печиньский (Zbigniew Brzezinski), Мирослав Бака (Putek), Збигнев Замаховский (Gendera), Кшиштоф Глёбиш (Siwicki), Павел Малашинский (Ostaszewski), Ирениуш Чоп (Rakowiecki)

  • Описание:
    1968 год. Майор Рышард Куклинский готовит план военных учений стран-участниц Организации Варшавского договора. Он прекрасно понимает, что Советский Союз рассматривает возможность массированной атаки на Западную Европу и страны НАТО, которые, не имея достаточного количества обычных вооружений, будут вынуждены контратаковать с помощью ядерных ударов по его родной Польше, через которую и будут проходить силы первого и второго броска. Самосожжение философа Рышарда Сивца в знак протеста против вторжения в Чехословакию, жестокое подавление армией забастовок в Гданьске в декабре 1970 года с помощью тяжелых пулеметов - все это склоняет уже полковника Рышарда Куклинского использовать хорошие связи в советских и польских военных кругах и доступ к совершенно секретным документам "в мирных целях", добровольно предложив сотрудничество с Центральным разведывательным управлением США. Под псевдонимом "Джек Стронг" и кодовым именем "Чайка" Куклинский передает на Запад совершенно секретные документы о советском наступательном вооружении, системах ПВО и ПРО и планах ввести на территории Польши военное положение. С тех пор его жизнь находится под угрозой, дети презирают его за службу "красным", жена подозревает в супружеской измене, а внимание военной контрразведки и советского КГБ может привести к неверному шагу и провалу.
  • Рейтинг:



  • Качество: HDRip
  • Формат: :AVI
  • Видео кодек: XviD
  • Аудио кодек: AC3
  • Видео: 720x304 (2.35:1), 1330 kbps, 24 fps, 0,253 bpp
  • Аудио: 2.0 / 48 kHz / 192 kbps / 16 bit
  • Релиз от: GEKADOL

    Код:

    General
    Complete name                            : H:\ТОРРЕНТЫ\Jack.Strong.2014.HDRip.1400Mb.avi
    Format                                   : AVI
    Format/Info                              : Audio Video Interleave
    File size                                : 1.37 GiB
    Duration                                 : 2h 7mn
    Overall bit rate                         : 1 532 Kbps
    Writing application                      : VirtualDubMod 1.5.10.2 (build 2540/release)
    Writing library                          : VirtualDubMod build 2540/release

    Video
    ID                                       : 0
    Format                                   : MPEG-4 Visual
    Format profile                           : Advanced Simple@L5
    Format settings, BVOP                    : 2
    Format settings, QPel                    : No
    Format settings, GMC                     : No warppoints
    Format settings, Matrix                  : Default (H.263)
    Codec ID                                 : XVID
    Codec ID/Hint                            : XviD
    Duration                                 : 2h 7mn
    Bit rate                                 : 1 331 Kbps
    Width                                    : 720 pixels
    Height                                   : 304 pixels
    Display aspect ratio                     : 2.35:1
    Frame rate                               : 24.000 fps
    Color space                              : YUV
    Chroma subsampling                       : 4:2:0
    Bit depth                                : 8 bits
    Scan type                                : Progressive
    Compression mode                         : Lossy
    Bits/(Pixel*Frame)                       : 0.253
    Stream size                              : 1.19 GiB (87%)
    Writing library                          : XviD 1.2.1 (UTC 2008-12-04)

    Audio
    ID                                       : 1
    Format                                   : AC-3
    Format/Info                              : Audio Coding 3
    Mode extension                           : CM (complete main)
    Codec ID                                 : 2000
    Duration                                 : 2h 7mn
    Bit rate mode                            : Constant
    Bit rate                                 : 192 Kbps
    Channel(s)                               : 2 channels
    Channel positions                        : Front: L R
    Sampling rate                            : 48.0 KHz
    Bit depth                                : 16 bits
    Compression mode                         : Lossy
    Stream size                              : 175 MiB (13%)
    Alignment                                : Split accross interleaves
    Interleave, duration                     : 42 ms (1.00 video frame)
    Interleave, preload duration             : 500 ms


    Скриншоты:


    pb.wtf



  • Скачать Джек Стронг через торрент http://i67.fastpic.ru/big/2014/0719/e3/3690acab91e0eb04e1c211e32dead5e3.jpg Скачать фильм Джек Стронг через торрент бесплантно в хорошем качестве Описание: 1968 год. Майор Рышард Куклинский готовит план военных учений стран-участниц Организации Варшавского договора. Он прекрасно ... 8 10 5
    Торрент: Зарегистрирован [2014-07-19 03:32] · скачан: 100 раз
    Статус: T временная
    Размер: 1.37 GB
    Как cкачать? Как скачать Джек Стронг через торрент | qTorrent

    % Раздел Тема Автор DL S | L
    Фильмы (Blu-ray, BD-Remux, HDDVD) [ 25.41 GB ] Под псевдонимом: Джек Стронг / Джек Стронг / Jack Strong [2014 Польша биография BDRemux 1080р от ExKinoRay] VO Ворон Скачать
    1 | 0
    Мультфильмы (48-60 fps) [ 5.51 GB ] Дамбо / Dumbo [1941 мультфильм мюзикл BDRip 1080p / 60 FPS] Tiberiumsun69 Скачать
    1 | 0
    Мультфильмы (48-60 fps) [ 3.04 GB ] Дамбо / Dumbo [1941 мультфильм мюзикл BDRip 720p / 60 FPS] Tiberiumsun69 Скачать
    1 | 0
    T Фильмы 2014 (Звук TS, Cam, VO, DVO) [ 1.46 GB ] Под псевдонимом: Джек Стронг / Джек Стронг / Jack Strong [2014 Польша биография BDRip-AVC] VO + Original + Sub sokol_ok Скачать
    2 | 0
    T Фильмы 2014 (Звук TS, Cam, VO, DVO) [ 743 MB ] Под псевдонимом: Джек Стронг / Джек Стронг / Jack Strong [2014 Польша биография BDRip-AVC] VO + Sub sokol_ok Скачать
    2 | 0
    T Фильмы 2014 (Звук TS, Cam, VO, DVO) [ 2.18 GB ] Под псевдонимом: Джек Стронг / Джек Стронг / Jack Strong [2014 Польша биография BDRip-AVC] VO + Original + Sub sokol_ok Скачать
    2 | 0

    28-11-2019 20:33  

    Отключить всю рекламу на сайте

      Дорогой пользователь! Огромная просьба, поблагодарите релизера, оцените раздачу и оставьте свои комментарий, если Вы скачали Джек Стронг через торрент бесплатно! Внесите свою лепту в развитие PiratBit!
      Комментировать посты могут только пользователи прошедшие не сложную регистрацию
      Показать сообщения:    

      Джек Стронг через торрент
      Скачать бесплатно Джек Стронг
      Джек Стронг скачать торрент
      Джек Стронг смотреть онлайн
      Cкачать фильм Джек Стронг бесплатно
      Джек Стронг скачать торрент в хорошем качестве
      Джек Стронг смотреть онлайн бесплатно в хорошем качестве


      Вы не можете начинать темы
      Вы не можете отвечать на сообщения
      Вы не можете редактировать свои сообщения
      Вы не можете удалять свои сообщения
      Вы не можете голосовать в опросах
      Вы не можете прикреплять файлы к сообщениям
      Вы можете скачивать файлы