Ссылка на приватное зеркало нашего сайта всего за 1$. Внимание количество ограничено!!!

2 сезон

iTunes

1 сезон

1

iTunes

iTunes

iTunes

1 сезон

RePack

30

ИГРА 18+

pack

ВАЖНО

!!Акция!!

Alien_RageХит недели

RePack

MK11
pack

Забери бонус

RePack

jed

!!Акция!!

Alien_Rage

RePack

fifa19

RePack

Assassins Creed: Odyssey

RePack

NEED FOR SPEED™ PAYBACK

4 сезон

9 сезон

Бесстыжие 9 сезон

Все сериалы

все сериалы на PB.wtf

RePack

FAR CRY 5
  

Как развести миллионера / Серии 1-4 из 4 (Василий Мищенко) [2014, Россия, комедия, HDTVRip) pb.wtf

Как развести миллионера через торрент pb.wtf

Размер: 2.15 GB | Добавлен: 6 лет 3 мес. назад | Торрент скачан:1033 раза
Скачать  

19-07-2014 06:17 Как развести миллионера Скачать торрент  

Как развести миллионера


  • Год выпуска: 2014
  • Страна: Россия
  • Жанр: комедия
  • Продолжительность: 00:43:48 (Серия)

  • Режиссер: Василий Мищенко
  • В ролях:

    Михаил Шкловский, Вера Баханкова, Александр Сибирцев, Иван Лапин, Нелли Неведина, Василий Мищенко, Денис Ясик, Ирина Лосева, Ульяна Лаптева, Александр Числов (Лейкин), Софья Елфимова (Вера), Риана Райсгард

  • Описание:
    Богатый и избалованный Кирилл Торопов заключает с друзьями пари: он очарует и приведет в загс пять невест, но все они его бросят, как только узнают, что он нищий. Так и происходит, но в пятую невесту, Нину, Торопов неожиданно для себя влюбляется. Однако Нина узнает о пари...
  • Рейтинг:



  • Качество: HDTVRip
  • Формат: :AVI
  • Видео кодек: XviD
  • Аудио кодек: AC3
  • Видео: 720x400 (16:9), 1553 kbps, 25 fps, 0,216 bpp
  • Аудио: 2.0 / 48 kHz / 192 kbps / 16 bit
  • Релиз от: GEKADOL

    Код:

    General
    Complete name                            : G:\Kak.razvesti.millionera.2014.HDTVRip.RG.Russkie.serialy.&.Files-x\Kak.razvesti.millionera.01.seriya.2014.HDTVRip.RG.Russkie.serialy.&.Files-x.avi
    Format                                   : AVI
    Format/Info                              : Audio Video Interleave
    File size                                : 550 MiB
    Duration                                 : 43mn 48s
    Overall bit rate                         : 1 755 Kbps
    Writing application                      : VirtualDubMod 1.5.10.3 | www.virtualdub-fr.org || (build 2550/release)
    Writing library                          : VirtualDubMod build 2550/release

    Video
    ID                                       : 0
    Format                                   : MPEG-4 Visual
    Format profile                           : Advanced Simple@L5
    Format settings, BVOP                    : 1
    Format settings, QPel                    : No
    Format settings, GMC                     : No warppoints
    Format settings, Matrix                  : Default (H.263)
    Codec ID                                 : XVID
    Codec ID/Hint                            : XviD
    Duration                                 : 43mn 48s
    Bit rate                                 : 1 553 Kbps
    Width                                    : 720 pixels
    Height                                   : 400 pixels
    Display aspect ratio                     : 16:9
    Frame rate                               : 25.000 fps
    Color space                              : YUV
    Chroma subsampling                       : 4:2:0
    Bit depth                                : 8 bits
    Scan type                                : Progressive
    Compression mode                         : Lossy
    Bits/(Pixel*Frame)                       : 0.216
    Stream size                              : 487 MiB (89%)
    Writing library                          : XviD 1.2.1 (UTC 2008-12-04)

    Audio
    ID                                       : 1
    Format                                   : AC-3
    Format/Info                              : Audio Coding 3
    Mode extension                           : CM (complete main)
    Codec ID                                 : 2000
    Duration                                 : 43mn 48s
    Bit rate mode                            : Constant
    Bit rate                                 : 192 Kbps
    Channel(s)                               : 2 channels
    Channel positions                        : Front: L R
    Sampling rate                            : 48.0 KHz
    Bit depth                                : 16 bits
    Compression mode                         : Lossy
    Stream size                              : 60.2 MiB (11%)
    Alignment                                : Split accross interleaves
    Interleave, duration                     : 40 ms (1.00 video frame)
    Interleave, preload duration             : 500 ms


    Скриншоты:


    pb.wtf



  • Скачать Как развести миллионера через торрент http://i65.fastpic.ru/big/2014/0719/f1/06a6d2761622d64bfa6f196c4d9c82f1.jpg Скачать фильм Как развести миллионера через торрент бесплантно в хорошем качестве Описание: Богатый и избалованный Кирилл Торопов заключает с друзьями пари: он очарует и приведет в загс пять невест, но все они его ... 9.4 10 23
    Торрент: Зарегистрирован [2014-07-19 06:17] · скачан: 1 033 раз
    Статус: √ проверено
    Размер: 2.15 GB
    Как cкачать? Как скачать Как развести миллионера через торрент | qTorrent

    % Раздел Тема Автор DL S | L
    Наши сериалы [ 9.53 GB ] Как развести миллионера / Серии: 1-4 из 4 [2014 HDTV 1080i] bober100 Скачать
    1 | 0

    28-11-2019 20:33  

    Отключить всю рекламу на сайте

    08-08-2014 18:56 Как развести миллионера Скачать торрент  

    Спасибо,посмотрим!pb.wtf



      Дорогой пользователь! Огромная просьба, поблагодарите релизера, оцените раздачу и оставьте свои комментарий, если Вы скачали Как развести миллионера через торрент бесплатно! Внесите свою лепту в развитие PiratBit!
      Комментировать посты могут только пользователи прошедшие не сложную регистрацию
      Показать сообщения:    

      Как развести миллионера через торрент
      Скачать бесплатно Как развести миллионера
      Как развести миллионера скачать торрент
      Как развести миллионера смотреть онлайн
      Cкачать фильм Как развести миллионера бесплатно
      Как развести миллионера скачать торрент в хорошем качестве
      Как развести миллионера смотреть онлайн бесплатно в хорошем качестве


      Вы не можете начинать темы
      Вы не можете отвечать на сообщения
      Вы не можете редактировать свои сообщения
      Вы не можете удалять свои сообщения
      Вы не можете голосовать в опросах
      Вы не можете прикреплять файлы к сообщениям
      Вы можете скачивать файлы