Ссылка на приватное зеркало нашего сайта всего за 1$. Внимание количество ограничено!!!

2 сезон

iTunes

1 сезон

1

iTunes

iTunes

iTunes

1 сезон

RePack

30

ИГРА 18+

pack

ВАЖНО

!!Акция!!

Alien_RageХит недели

RePack

MK11
pack

Забери бонус

RePack

jed

!!Акция!!

Alien_Rage

RePack

fifa19

RePack

Assassins Creed: Odyssey

RePack

NEED FOR SPEED™ PAYBACK

4 сезон

9 сезон

Бесстыжие 9 сезон

Все сериалы

все сериалы на PB.wtf

RePack

FAR CRY 5
  

Скуби-Ду и монстр из Мексики / Scooby-Doo! and the Monster of Mexico (Скотт Джералдс) [2003 г., Комедия Детектив Семейный, DVDRip, Профессиональный многоголосый] pb.wtf

Скуби-Ду и монстр из Мексики через торрент pb.wtf

Размер: 1.46 GB | Добавлен: 6 лет 3 мес. назад | Торрент скачан:75 раз
Скачать  

19-07-2014 11:42 Скуби-Ду и монстр из Мексики Скачать торрент  

Скуби-Ду и монстр из Мексики / Scooby-Doo! and the Monster of Mexico
Год выпуска: 2003
Страна: США
Жанр: Комедия Детектив Семейный
Продолжительность: 01:15:00
Перевод: Профессиональный многоголосый
Субтитры: отсутствуют

Режиссер: Скотт Джералдс
Продюссер: Джозеф Барбера, Маргарет М. Дин, Скотт Джералдс
Сценарий: Дуглас Вуд

Премьера в мире: 30 сентября 2003



В ролях: Николь Джаффе, Хезер Норт, Джесси Боррего, Брэндон Гонзалез, Кастуло Герра, Дарлен Мендоза, Рита Морено

Описание: Задорная компания отправляется в Мексику, чтобы провести там заслуженный отпуск. Но не тут-то было: таинственное гигантское существо с зелеными светящимися глазами терроризирует жителей живописного городка Веракруз: оно распугало всех туристов этого райского местечка! Теперь неутомимым друзьям придется сразиться с гигантскими пернатыми змеями и страшными привидениями, чтобы раскрыть Мексиканскую Тайну, пока загадочный монстр не нанес очередной удар!

Качество: DVDRip
Формат: AVI
Видео кодек: XviD
Аудио кодек: AC3
Видео: MPEG4, XviD, 704x400 (16:9), 23.976 fps, 2 123 Kbps (0.314 bit/pixel)
Аудио#1: AC-3, 48.0 KHz, 2 ch, 192 Kbps, CBR[rus]
Аудио#2: AC-3, 48.0 KHz, 6 ch, 448 Kbps, CBR[eng]
скриншот   скриншот   скриншот  

Общее
Полное имя : \\Rt-n14u\elements\Download2\Complete\Scooby_Doo_and_the_Monster_of_Mexico.avi
Формат : AVI
Формат/Информация : Audio Video Interleave
Размер файла : 1,46 Гбайт
Продолжительность : 1 ч. 15 м.
Общий поток : 2777 Кбит/сек
Программа кодирования : VirtualDubMod 1.5.10.3 | www.virtualdub-fr.org || (build 2550/release)
Библиотека кодирования : VirtualDubMod build 2550/release

Видео
Идентификатор : 0
Формат : MPEG-4 Visual
Профиль формата : Advanced Simple@L5
Параметр BVOP формата : 1
Параметр QPel формата : Нет
Параметр GMC формата : Без точки перехода
Параметр матрицы формата : Выборочная
Идентификатор кодека : XVID
Идентификатор кодека/Подсказка : XviD
Продолжительность : 1 ч. 15 м.
Битрейт : 2123 Кбит/сек
Ширина : 704 пикселя
Высота : 400 пикселей
Соотношение сторон : 16:9
Частота кадров : 23,976 кадра/сек
Цветовое пространство : YUV
Субдискретизация насыщенности : 4:2:0
Битовая глубина : 8 бит
Тип развёртки : Прогрессивная
Метод сжатия : С потерями
Бит/(Пиксели*Кадры) : 0.314
Размер потока : 1,12 Гбайт (76%)
Библиотека кодирования : XviD 64

Аудио #1
Идентификатор : 1
Формат : AC-3
Формат/Информация : Audio Coding 3
Расширение режима : CM (complete main)
Параметр Endianness формата : Big
Идентификатор кодека : 2000
Продолжительность : 1 ч. 15 м.
Вид битрейта : Постоянный
Битрейт : 192 Кбит/сек
Каналы : 2 канала
Расположение каналов : Front: L R
Частота : 48,0 КГц
Битовая глубина : 16 бит
Метод сжатия : С потерями
Размер потока : 103 Мбайт (7%)
Выравнивание : Разделение по промежуткам
Продолжительность промежутка : 42 мс. (1,00 видеокадр)
Время предзагрузки промежутка : 500 мс.

Аудио #2
Идентификатор : 2
Формат : AC-3
Формат/Информация : Audio Coding 3
Расширение режима : CM (complete main)
Параметр Endianness формата : Big
Идентификатор кодека : 2000
Продолжительность : 1 ч. 15 м.
Вид битрейта : Постоянный
Битрейт : 448 Кбит/сек
Каналы : 6 каналов
Расположение каналов : Front: L C R, Side: L R, LFE
Частота : 48,0 КГц
Битовая глубина : 16 бит
Метод сжатия : С потерями
Размер потока : 241 Мбайт (16%)
Выравнивание : Разделение по промежуткам
Продолжительность промежутка : 42 мс. (1,00 видеокадр)
Время предзагрузки промежутка : 500 мс.

Скорость отдачи небольшая, Don’t Panic pb.wtf



Скачать Скуби-Ду и монстр из Мексики через торрент http://pic.kartinco.top/images/6/uhto6.jpg Скачать фильм Скуби-Ду и монстр из Мексики через торрент бесплантно в хорошем качестве Описание: Задорная компания отправляется в Мексику, чтобы провести там заслуженный отпуск. Но не тут-то было: таинственное гигантское ... 10 10 3
Торрент: Зарегистрирован [2014-07-19 11:42] · скачан: 75 раз
Статус: √ проверено
Размер: 1.46 GB
Как cкачать? Как скачать Скуби-Ду и монстр из Мексики через торрент | qTorrent

28-11-2019 20:33  

Отключить всю рекламу на сайте

    Дорогой пользователь! Огромная просьба, поблагодарите релизера, оцените раздачу и оставьте свои комментарий, если Вы скачали Скуби-Ду и монстр из Мексики через торрент бесплатно! Внесите свою лепту в развитие PiratBit!
    Комментировать посты могут только пользователи прошедшие не сложную регистрацию
    Показать сообщения:    

    Скуби-Ду и монстр из Мексики через торрент
    Скачать бесплатно Скуби-Ду и монстр из Мексики
    Скуби-Ду и монстр из Мексики скачать торрент
    Скуби-Ду и монстр из Мексики смотреть онлайн
    Cкачать фильм Скуби-Ду и монстр из Мексики бесплатно
    Скуби-Ду и монстр из Мексики скачать торрент в хорошем качестве
    Скуби-Ду и монстр из Мексики смотреть онлайн бесплатно в хорошем качестве


    Вы не можете начинать темы
    Вы не можете отвечать на сообщения
    Вы не можете редактировать свои сообщения
    Вы не можете удалять свои сообщения
    Вы не можете голосовать в опросах
    Вы не можете прикреплять файлы к сообщениям
    Вы можете скачивать файлы