2 сезон

iTunes

MVO

1

2 сезон

iTunes

iTunes

1 сезон

RePack

30

Новинка

ВАЖНО

ИГРА 18+

pack

RePack

MK11
pack

Легкие деньги

RePack

jed

RePack

fifa19

RePack

RDR2

RePack

NEED FOR SPEED™ PAYBACK

4 сезон

9 сезон

Бесстыжие 9 сезон

Все сериалы

все сериалы на PB.wtf

RePack

FAR CRY 5

Anonymous, доброй ночи, мы не успеваем собрать деньги на оплату серверов за декабрь и январь, помогите нам пожалуйста в это трудное время. В качестве благодарности мы отключим Вам всю рекламу на сайте (укажите свой ник в строку Ваше имя)!

×
  
Magnet ссылка

Я – легенда / I Am Legend 60 fps (Френсис Лоуренс / Francis Lawrence) [2007, США, фантастика, триллер, драма, BDRip 720p,Дубляж, Лицензия ] pb.wtf

Я – легенда через торрент pb.wtf

Размер: 11.56 GB | Добавлен: 6 лет 5 мес. назад | Торрент скачан:518 раз
Скачать  

19-07-2014 12:40 Я – легенда Скачать торрент  

Я – легенда / I Am Legend
Год выпуска: 2007
Страна: США
Жанр: фантастика, триллер, драма
Продолжительность: 01:40:31
Перевод: Дубляж, Лицензия
Субтитры: Нет

Режиссер: Френсис Лоуренс / Francis Lawrence
В ролях: Уилл Смит (Robert Neville), Алиси Брага (Anna), Чарли Тахэн (Ethan), Салли Ричардсон-Уитфилд (Zoe Neville), Уиллоу Смит (Marley Neville), Даррел Фостер (Mike - Military Escort), Эйприл Грэйс (TV Personality), Дэш Майок (Alpha Male), Джоанна Нумата (Alpha Female), Эбби (Sam), Кона (Sam), Сэмюэл Глен (Military Driver - Jay)

Описание: Адаптация одноименного романа Ричарда Мэтисона о неизвестном вирусе, унесшем жизни половины населения земного шара, а остальную половину превратившего в вампиров. Сюжет строится вокруг единственного уцелевшего человека с необъяснимым иммунитетом, ночами держащего бесконечную осаду упырей, а днем пытающегося найти противоядие и выяснить причины эпидемии.

kinopoisk.ru: 7.919 (136 378)
imdb.com: 7.20 (380 901)
MPAA: PG-13 - Детям до 13 лет просмотр не желателен

Качество: BDRip 720p
Формат: MKV
Видео кодек: AVC
Аудио кодек: AC3
Видео: AVC, 1280x534 (2.40:1), 16020 kbps, 59,940 fps, 0,391 bpp
Аудио: AC3 / 5.1 / 48 kHz / 448 kbps / 16 bit

Автор: kryl1411

General
Unique ID : 240181637719661094420389965367711727822 (0xB4B14D02624AA423BA40C6697CF980CE)
Complete name : C:\закачки\I.Am.Legend_60fps.mkv
Format : Matroska
Format version : Version 2
File size : 11.6 GiB
Duration : 1h 40mn
Overall bit rate : 16.5 Mbps
Movie name : BD-Remux by DaniLch
Encoded date : UTC 2013-01-10 15:09:43
Writing application : mkvmerge v3.4.0 ('Rapunzel') сборка от May 15 2010 09:38:20
Writing library : libebml v0.8.0 + libmatroska v0.9.0

Video
ID : 1
Format : AVC
Format/Info : Advanced Video Codec
Format profile : High@L4.1
Format settings, CABAC : Yes
Format settings, ReFrames : 12 frames
Codec ID : V_MPEG4/ISO/AVC
Duration : 1h 40mn
Bit rate : 16.0 Mbps
Width : 1 280 pixels
Height : 534 pixels
Display aspect ratio : 2.40:1
Frame rate : 59.940 fps
Color space : YUV
Chroma subsampling : 4:2:0
Bit depth : 8 bits
Scan type : Progressive
Bits/(Pixel*Frame) : 0.391
Stream size : 11.0 GiB (95%)
Writing library : x264 core 129 r2230 1cffe9f
Encoding settings : cabac=1 / ref=12 / deblock=1:-3:-3 / analyse=0x3:0x133 / me=esa / subme=10 / psy=1 / psy_rd=1.00:0.00 / mixed_ref=1 / me_range=32 / chroma_me=1 / trellis=2 / 8x8dct=1 / cqm=0 / deadzone=21,11 / fast_pskip=1 / chroma_qp_offset=-2 / threads=12 / lookahead_threads=2 / sliced_threads=0 / nr=0 / decimate=1 / interlaced=0 / bluray_compat=0 / constrained_intra=0 / bframes=8 / b_pyramid=2 / b_adapt=2 / b_bias=0 / direct=3 / weightb=1 / open_gop=0 / weightp=2 / keyint=599 / keyint_min=59 / scenecut=40 / intra_refresh=0 / rc_lookahead=60 / rc=2pass / mbtree=1 / bitrate=16020 / ratetol=1.0 / qcomp=0.60 / qpmin=0 / qpmax=69 / qpstep=4 / cplxblur=20.0 / qblur=0.5 / ip_ratio=1.40 / aq=1:1.00
Language : English
Default : No
Forced : No

Audio
ID : 2
Format : AC-3
Format/Info : Audio Coding 3
Mode extension : CM (complete main)
Codec ID : A_AC3
Duration : 1h 40mn
Bit rate mode : Constant
Bit rate : 448 Kbps
Channel(s) : 6 channels
Channel positions : Front: L C R, Side: L R, LFE
Sampling rate : 48.0 KHz
Bit depth : 16 bits
Compression mode : Lossy
Stream size : 322 MiB (3%)
Title : AC3 5.1 @ 448 kbps - Дубляж, Blu-ray CEE
Language : Russian
Default : No
Forced : No
pb.wtf



Скачать Я – легенда через торрент http://i48.fastpic.ru/big/2013/0423/2d/feb28895f097b9b23cd5e10c12ca602d.png Скачать фильм Я – легенда через торрент бесплантно в хорошем качестве Описание: Адаптация одноименного романа Ричарда Мэтисона о неизвестном вирусе, унесшем жизни половины населения земного шара, а остальную ... 9.8 10 19
Info! Золотая раздача, скачанное не засчитывается.
Торрент: Зарегистрирован [2014-07-19 12:40] · скачан: 518 раз
Статус: √ проверено
Размер: 11.56 GB
Как cкачать? Как скачать Я – легенда через торрент | UTorrent

% Раздел Тема Автор DL S | L
Фильмы (HD 720p, 1080p) (48-60 fps) [ 6.66 GB ] Я – легенда / I Am Legend [2007 BDRip 720p / 60 FPS] [Alternative Cut] 2xDUB + 3xMVO + DVO + 3xAVO + VO - от R.G. HD-Films slaventi-69 Скачать
7 | 0
Фильмы (HD 720p, 1080p) (48-60 fps) [ 3.96 GB ] Я - легенда / I Am Legend [2007 BDRip 720p ] [Theatrical version] slaventi-69 Скачать
1 | 0

28-11-2019 20:33  

Отключить всю рекламу на сайте

19-07-2014 13:09 Я – легенда Скачать торрент  

KEYS, если будут артефакты, тебя заставлю рядом смотреть :threaten:

шутка pb.wtf



19-07-2014 13:15 Я – легенда Скачать торрент  

в 1080р есть?pb.wtf



19-07-2014 13:17 Я – легенда Скачать торрент  

да артефакты штука неприятная pb.wtf



19-07-2014 13:23 Я – легенда Скачать торрент  

в чём прикол этих 60 фпс?
или это уже,как у аудиофилов?pb.wtf



19-07-2014 13:35 Я – легенда Скачать торрент  

ТаможеНик писал(а):

KEYS, если будут артефакты, тебя заставлю рядом смотреть :threaten:

шутка

все претензии к автору рипа :this:

Цитата:

Q: Присутствуют ли артефакты на изображении?
A: Да, есть, и будут, какие настройки кодека не вписывай они будут постоянно! хоть они и обработаны фильтром "Sharp", но они выглядят вполне смотрибельно.
+ > Артефактов стало меньше! Cкрипт кодирования переписан, распределено добавление кадров! (это уменьшило появление артефактов)

vanesfeo писал(а):

в 1080р есть?

не нашелpb.wtf



19-07-2014 13:53 Я – легенда Скачать торрент  

NO FEAR писал(а):

в чём прикол этих 60 фпс?
или это уже,как у аудиофилов?

Цитата:

В 2,5 раза больше кадров!
В 2,5 раза плавнее! (59,94 fps)

короче более "живая" картинкаpb.wtf



19-07-2014 15:15 Я – легенда Скачать торрент  

от этих 60 фпс такое ощущение, что видео ускорено, уж очень както быстро действия происходят, а на самом деле все идет своим чередом.. ощущение странное xDpb.wtf



19-07-2014 15:37 Я – легенда Скачать торрент  

vanesfeo, а теперь прдставь что на 120 fps творится)pb.wtf



19-07-2014 16:20 Я – легенда Скачать торрент  

А сэмпл есть?pb.wtf



19-07-2014 16:43 Я – легенда Скачать торрент  

RomaXP, естьpb.wtf



01-08-2014 10:13 Я – легенда Скачать торрент  

Так в плеерах есть же функция Motion (Mirillis splash) для таково вот "ускорения",хз попробую посмотреть.pb.wtf



    Дорогой пользователь! Огромная просьба, поблагодарите релизера, оцените раздачу и оставьте свои комментарий, если Вы скачали Я – легенда через торрент бесплатно! Внесите свою лепту в развитие PiratBit!
    Комментировать посты могут только пользователи прошедшие не сложную регистрацию
    Показать сообщения:    

    Я – легенда через торрент
    Скачать бесплатно Я – легенда
    Я – легенда скачать торрент
    Я – легенда смотреть онлайн
    Cкачать фильм Я – легенда бесплатно
    Я – легенда скачать торрент в хорошем качестве
    Я – легенда смотреть онлайн бесплатно в хорошем качестве


    Вы не можете начинать темы
    Вы не можете отвечать на сообщения
    Вы не можете редактировать свои сообщения
    Вы не можете удалять свои сообщения
    Вы не можете голосовать в опросах
    Вы не можете прикреплять файлы к сообщениям
    Вы можете скачивать файлы