Ссылка на приватное зеркало нашего сайта всего за 1$. Внимание количество ограничено!!!

2 сезон

iTunes

1 сезон

1

iTunes

iTunes

iTunes

1 сезон

RePack

30

ИГРА 18+

pack

ВАЖНО

!!Акция!!

Alien_RageХит недели

RePack

MK11
pack

Забери бонус

RePack

jed

!!Акция!!

Alien_Rage

RePack

fifa19

RePack

Assassins Creed: Odyssey

RePack

NEED FOR SPEED™ PAYBACK

4 сезон

9 сезон

Бесстыжие 9 сезон

Все сериалы

все сериалы на PB.wtf

RePack

FAR CRY 5
  

Услуга / Favor (Пол Осборн) [2013 г., триллер, HDRip, Любительский одноголосый] pb.wtf

Услуга через торрент pb.wtf

Размер: 2.08 GB | Добавлен: 6 лет 3 мес. назад | Торрент скачан:77 раз
Скачать  

19-07-2014 17:27 Услуга Скачать торрент  

Услуга / Favor
Год выпуска: 2013
Страна: США / Conspicuous Pictures
Жанр: триллер
Продолжительность: 01:42:34
Перевод: Любительский одноголосый (datynet)

Режиссер: Пол Осборн

В ролях: Блэйн Уивер, Патрик Дэй, Джеффри Комбс, Кристина Роуз, Элисон Мартин, Шерил Николс, Розали Уорд, Лесли Уиммер Осборн, Эми Донеган, Мэтт Фендер

Описание: Размеренная жизнь Кипа оказывается в опасности, когда в результате несчастного случая погибает его любовница. В отчаянии он обращается к другу детства Марвину, безработному неудачнику, который соглашается помочь ему избавиться от трупа и замести следы преступления. Это решение и приводит к событиям, которые оба друга не могли даже представить...

Качество: HDRip
Формат: AVI
Видео кодек: XviD
Аудио кодек: AC3
Видео: MPEG4, XviD, 720x400 (16:9), 23.976 fps, 2 694 Kbps (0.390 bit/pixel)
Аудио: AC-3, 44.1 KHz, 2 ch, 192 Kbps, CBR


Общее
Полное имя : Piratbit.net - Favor.2013.HDRip.avi
Формат : AVI
Формат/Информация : Audio Video Interleave
Профиль формата : OpenDML
Размер файла : 2,08 Гбайт
Продолжительность : 1 ч. 42 м.
Общий поток : 2898 Кбит/сек
Программа кодирования : VirtualDubMod 1.5.10.3 | www.virtualdub-fr.org || (build 2550/release)
Библиотека кодирования : VirtualDubMod build 2550/release

Видео
Идентификатор : 0
Формат : MPEG-4 Visual
Профиль формата : Advanced Simple@L5
Параметр BVOP формата : 2
Параметр QPel формата : Нет
Параметр GMC формата : Без точки перехода
Параметр матрицы формата : Default (H.263)
Идентификатор кодека : XVID
Идентификатор кодека/Подсказка : XviD
Продолжительность : 1 ч. 42 м.
Битрейт : 2694 Кбит/сек
Ширина : 720 пикселей
Высота : 400 пикселей
Соотношение сторон : 16:9
Частота кадров : 23,976 кадра/сек
Цветовое пространство : YUV
Субдискретизация насыщенности : 4:2:0
Битовая глубина : 8 бит
Тип развёртки : Прогрессивная
Метод сжатия : С потерями
Бит/(Пиксели*Кадры) : 0.390
Размер потока : 1,93 Гбайт (93%)
Библиотека кодирования : XviD 1.2.1 (UTC 2008-12-04)

Аудио
Идентификатор : 1
Формат : AC-3
Формат/Информация : Audio Coding 3
Расширение режима : CM (complete main)
Параметр Endianness формата : Big
Идентификатор кодека : 2000
Продолжительность : 1 ч. 42 м.
Вид битрейта : Постоянный
Битрейт : 192 Кбит/сек
Каналы : 2 канала
Расположение каналов : Front: L R
Частота : 44,1 КГц
Битовая глубина : 16 бит
Метод сжатия : С потерями
Размер потока : 141 Мбайт (7%)
Выравнивание : Разделение по промежуткам
Продолжительность промежутка : 42 мс. (1,00 видеокадр)
Время предзагрузки промежутка : 500 мс.

pb.wtf



Скачать Услуга через торрент http://pic.kartinco.top/images/6/xo3k7.jpg Скачать фильм Услуга через торрент бесплантно в хорошем качестве Описание: Размеренная жизнь Кипа оказывается в опасности, когда в результате несчастного случая погибает его любовница. В отчаянии он ... 10 10 4
Торрент: Зарегистрирован [2014-07-19 17:27] · скачан: 77 раз
Статус: T временная
Размер: 2.08 GB
Как cкачать? Как скачать Услуга через торрент | qTorrent

% Раздел Тема Автор DL S | L
T Фильмы 2013 (Звук TS, Cam, VO, DVO) [ 872 MB ] Услуга / Favor [2013 HDRip Любительский [datynet] GEKADOL Скачать
1 | 0

28-11-2019 20:33  

Отключить всю рекламу на сайте

    Дорогой пользователь! Огромная просьба, поблагодарите релизера, оцените раздачу и оставьте свои комментарий, если Вы скачали Услуга через торрент бесплатно! Внесите свою лепту в развитие PiratBit!
    Комментировать посты могут только пользователи прошедшие не сложную регистрацию
    Показать сообщения:    

    Услуга через торрент
    Скачать бесплатно Услуга
    Услуга скачать торрент
    Услуга смотреть онлайн
    Cкачать фильм Услуга бесплатно
    Услуга скачать торрент в хорошем качестве
    Услуга смотреть онлайн бесплатно в хорошем качестве


    Вы не можете начинать темы
    Вы не можете отвечать на сообщения
    Вы не можете редактировать свои сообщения
    Вы не можете удалять свои сообщения
    Вы не можете голосовать в опросах
    Вы не можете прикреплять файлы к сообщениям
    Вы можете скачивать файлы