2 сезон

iTunes

MVO

1

2 сезон

iTunes

iTunes

1 сезон

RePack

30

Новинка

ВАЖНО

ИГРА 18+

pack

RePack

MK11
pack

Легкие деньги

RePack

jed

RePack

fifa19

RePack

RDR2

RePack

NEED FOR SPEED™ PAYBACK

4 сезон

9 сезон

Бесстыжие 9 сезон

Все сериалы

все сериалы на PB.wtf

RePack

FAR CRY 5

Anonymous, доброй ночи, мы не успеваем собрать деньги на оплату серверов за декабрь и январь, помогите нам пожалуйста в это трудное время. В качестве благодарности мы отключим Вам всю рекламу на сайте (укажите свой ник в строку Ваше имя)!

×
  
Magnet ссылка

Лиззи Борден взяла топор / Lizzie Borden Took an Ax (Ник Гомез) [2014 г., триллер, драма, криминал, детектив, WEB-DLRip, Профессиональный многоголосый] iTunes pb.wtf

Лиззи Борден взяла топор через торрент pb.wtf

Размер: 447 MB | Добавлен: 6 лет 5 мес. назад | Торрент скачан:9 раз
Скачать  

19-07-2014 20:09 Лиззи Борден взяла топор Скачать торрент  

Лиззи Борден взяла топор / Lizzie Borden Took an Ax

Год выпуска: 2014
Страна: США
Жанр: триллер, драма, криминал, детектив
Продолжительность: 01:27^03
Перевод: Профессиональный многоголосый iTunes

Режиссер: Ник Гомез
Продюссер: Майкл Махони, Тина Бут, Джудит Верно
Сценарий: Стефен Т. Кэй
Премьера в мире: 25 января 2014

IMDB 5.80 (1373)


В ролях: Кристина Риччи, Клеа ДюВалл, Грегг Генри, Стивен МакХэтти, Шон Дойл, Сара Ботсфорд, Hannah Anderson, Андреа Рунге, Билл Кэмпбелл, Jason Chemij

Описание: Подлинная история Лиззи Борден, молодой женщины, осуждённой и оправданной в 1892 году за убийства отца и мачехи.



Качество: WEB-DLRip
Формат: AVI
Видео кодек: XviD
Аудио кодек: MP3
Видео: MPEG4, XviD, 640x360 (16:9), 23.976 fps, 580 Kbps (0.105 bit/pixel)
Аудио: MP3, 48.0 KHz, 2 ch, 128 Kbps, CBR
Format : AVI
Format/Info : Audio Video Interleave
File size : 447 MiB
Duration : 1h 27mn
Overall bit rate : 717 Kbps
Writing application : VirtualDubMod 1.5.10.3 | www.virtualdub-fr.org || (build 2550/release)
Writing library : VirtualDubMod build 2550/release

Video
ID : 0
Format : MPEG-4 Visual
Format profile : Advanced Simple@L5
Format settings, BVOP : 3
Format settings, QPel : No
Format settings, GMC : No warppoints
Format settings, Matrix : Default (H.263)
Codec ID : XVID
Codec ID/Hint : XviD
Duration : 1h 27mn
Bit rate : 580 Kbps
Width : 640 pixels
Height : 360 pixels
Display aspect ratio : 16:9
Frame rate : 23.976 fps
Color space : YUV
Chroma subsampling : 4:2:0
Bit depth : 8 bits
Scan type : Progressive
Compression mode : Lossy
Bits/(Pixel*Frame) : 0.105
Stream size : 361 MiB (81%)
Writing library : XviD 1.2.1 (UTC 2008-12-04)

Audio
ID : 1
Format : MPEG Audio
Format version : Version 1
Format profile : Layer 3
Codec ID : 55
Codec ID/Hint : MP3
Duration : 1h 27mn
Bit rate mode : Constant
Bit rate : 128 Kbps
Channel(s) : 2 channels
Sampling rate : 48.0 KHz
Compression mode : Lossy
Stream size : 79.7 MiB (18%)
Alignment : Aligned on interleaves
Interleave, duration : 42 ms (1.00 video frame)
Interleave, preload duration : 504 ms
Writing library : LAME3.99r
Encoding settings : -m s -V 4 -q 2 -lowpass 17 -b 128
Сэмпл pb.wtf



Скачать Лиззи Борден взяла топор через торрент http://i65.fastpic.ru/big/2014/0719/a5/fb40c83b876b7b25daf1d280f9a132a5.png Скачать фильм Лиззи Борден взяла топор через торрент бесплантно в хорошем качестве Описание: Подлинная история Лиззи Борден, молодой женщины, осуждённой и оправданной в 1892 году за убийства отца и ... 5 10 1
Торрент: Зарегистрирован [2014-07-19 20:09] · скачан: 9 раз
Статус: √ проверено
Размер: 447 MB
Как cкачать? Как скачать Лиззи Борден взяла топор через торрент | UTorrent

% Раздел Тема Автор DL S | L
Фильмы (WEB-DL 720p, 1080p) [ 7.91 GB ] Лиззи Борден взяла топор / Lizzie Borden Took an Ax [2014 WEB-DL 1080p] MVO bober100 Скачать
1 | 0
Фильмы 2014 [DVDrip, WEB-DLRip, HDrip] [ 1.44 GB ] Лиззи Борден взяла топор / Lizzie Borden Took an Ax [2014 WEB-DLRip Многоголосый закадровый) GEKADOL Скачать
1 | 0

28-11-2019 20:33  

Отключить всю рекламу на сайте

    Дорогой пользователь! Огромная просьба, поблагодарите релизера, оцените раздачу и оставьте свои комментарий, если Вы скачали Лиззи Борден взяла топор через торрент бесплатно! Внесите свою лепту в развитие PiratBit!
    Комментировать посты могут только пользователи прошедшие не сложную регистрацию
    Показать сообщения:    

    Лиззи Борден взяла топор через торрент
    Скачать бесплатно Лиззи Борден взяла топор
    Лиззи Борден взяла топор скачать торрент
    Лиззи Борден взяла топор смотреть онлайн
    Cкачать фильм Лиззи Борден взяла топор бесплатно
    Лиззи Борден взяла топор скачать торрент в хорошем качестве
    Лиззи Борден взяла топор смотреть онлайн бесплатно в хорошем качестве


    Вы не можете начинать темы
    Вы не можете отвечать на сообщения
    Вы не можете редактировать свои сообщения
    Вы не можете удалять свои сообщения
    Вы не можете голосовать в опросах
    Вы не можете прикреплять файлы к сообщениям
    Вы можете скачивать файлы