Ссылка на приватное зеркало нашего сайта всего за 1$. Внимание количество ограничено!!!

2 сезон

iTunes

1 сезон

1

2 сезон

2 сезон

iTunes

1 сезон

RePack

30

Новинка

ВАЖНО

ИГРА 18+

pack

RePack

MK11
pack

Забери бонус

RePack

jed

!!Акция!!

Alien_Rage

RePack

fifa19

RePack

Assassins Creed: Odyssey

RePack

NEED FOR SPEED™ PAYBACK

4 сезон

9 сезон

Бесстыжие 9 сезон

Все сериалы

все сериалы на PB.wtf

RePack

FAR CRY 5
  

Налёт / Braquo / Сезон: 3 / Серии 1-8 из 8 (Оливье Маршаль / Olivier Marchal, Фредерик Шёндёрфер / Frédéric Schoendoerffer, Филипп Аим / Philippe Haim) [2014, Франция, триллер, криминал, BDRip-AVC, Профессиональный, многоголосый, закадровый) [BaibaKo pb.wtf

Налёт через торрент pb.wtf

Размер: 5.75 GB | Добавлен: 6 лет 4 мес. назад | Торрент скачан:66 раз
Скачать  

20-07-2014 02:49 Налёт Скачать торрент  

Налёт / Braquo


  • Год выпуска: 2014
  • Страна: Франция
  • Жанр: триллер, криминал
  • Продолжительность: ~00:52:05 (Серия)
  • Перевод: (Профессиональный, многоголосый, закадровый) [BaibaKo]

  • Режиссер: Оливье Маршаль / Olivier Marchal, Фредерик Шёндёрфер / Frédéric Schoendoerffer, Филипп Аим / Philippe Haïm
  • В ролях:

    Жан-Юг Англад (Eddy Caplan), Кароль Роше (Roxane Delgado), Николя Дювошель (Théo Vachewski), Жозеф Малерба (Walter Morlighem), Жоффруа Тьебо (Roland Vogel), Ален Фиглаж (Serge Lemoine), Самюэль Ле Бьян (Gabriel Marceau), Жоэль Лефрансуа (Fargette), Паскаль Элсо (Procureur Vanderbeke), Софи Брусталь (Myriam Elmidoro), Юбер Кунде (Jonas Luanda), Франсуа Леванталь (Colonel Dantin)

  • Описание:
    Жизнь четверых сотрудников судебной полиции Парижского региона резко меняется, когда их друг и коллега Макс, несправедливо обвиненный, совершает самоубийство. С этого момента четверка начинает вести собственное расследование, чтобы восстановить справедливость и честное имя друга — даже если при этом им приходится рисковать и обходить закон.
  • Рейтинг:



  • Качество: BDRip-AVC
  • Формат: :MPEG-4
  • Видео кодек: AVC
  • Аудио кодек: AAC LC
  • Видео: 720x400 (16:9), 1536 kbps, 25 fps, 0,213 bpp
  • Аудио №1: русский / 2.0 / 48 kHz / 192 kbps
  • Аудио №2: французский / 2.0 / 48 kHz / 192 kbps
  • Релиз от: GEKADOL

    Код:

    Внимание! Раздача ведётся путём добавления новых серий; при каждом добавлении создаётся новый торрент. Чтобы начать докачку новой серии, пользователям необходимо сделать следующее:
    (1) остановить скачивание,
    (2) удалить старый торрент у себя из клиента (старые серии удалять не надо),
    (3) скачать новый торрент и запустить его у себя в клиенте вместо старого, при этом указать клиенту путь в старую папку куда и должно происходить скачивание новых серий.
    Ваш клиент при этом должен произвести хеширование (проверку) старой папки (если не производит сам - помогите ему сделать это), и будет докачивать только те серии которых у вас ещё нет. Старые серии при этом не удаляются, а продолжают раздаваться!
    Eсли вы уже удалили старые серии, то предотвратить повторную закачку старых серий можно, отжав галочку в соответсвующих местах при запуске нового торрента. По возможности, желательно не удалять старые серии как можно дольше чтобы релизёр не столько продолжал раздавать старые серии, а смог сконцентрироваться на новых.


    Код:

    General
    Complete name                            : H:\ТОРРЕНТЫ\Налёт(Сезон 3)\Braquo.s03e01.BDRip.x264.Rus.Fre.BaibaKo.tv.mp4
    Format                                   : MPEG-4
    Format profile                           : Base Media
    Codec ID                                 : isom
    File size                                : 715 MiB
    Duration                                 : 52mn 5s
    Overall bit rate mode                    : Variable
    Overall bit rate                         : 1 919 Kbps
    Encoded date                             : UTC 2014-07-13 19:29:30
    Tagged date                              : UTC 2014-07-13 19:29:30

    Video
    ID                                       : 1
    Format                                   : AVC
    Format/Info                              : Advanced Video Codec
    Format profile                           : Baseline@L3.0
    Format settings, CABAC                   : No
    Format settings, ReFrames                : 3 frames
    Codec ID                                 : avc1
    Codec ID/Info                            : Advanced Video Coding
    Duration                                 : 52mn 5s
    Bit rate                                 : 1 536 Kbps
    Maximum bit rate                         : 6 919 Kbps
    Width                                    : 720 pixels
    Height                                   : 400 pixels
    Display aspect ratio                     : 16:9
    Frame rate mode                          : Constant
    Frame rate                               : 25.000 fps
    Color space                              : YUV
    Chroma subsampling                       : 4:2:0
    Bit depth                                : 8 bits
    Scan type                                : Progressive
    Bits/(Pixel*Frame)                       : 0.213
    Stream size                              : 572 MiB (80%)
    Writing library                          : x264 core 130 r2273 b3065e6
    Encoding settings                        : cabac=0 / ref=3 / deblock=1:0:0 / analyse=0x1:0x111 / me=hex / subme=7 / psy=1 / psy_rd=1.00:0.00 / mixed_ref=1 / me_range=16 / chroma_me=1 / trellis=1 / 8x8dct=0 / cqm=0 / deadzone=21,11 / fast_pskip=1 / chroma_qp_offset=-2 / threads=12 / lookahead_threads=2 / sliced_threads=0 / nr=0 / decimate=1 / interlaced=0 / bluray_compat=0 / constrained_intra=0 / bframes=0 / weightp=0 / keyint=250 / keyint_min=25 / scenecut=40 / intra_refresh=0 / rc_lookahead=40 / rc=2pass / mbtree=1 / bitrate=1536 / ratetol=1.0 / qcomp=0.60 / qpmin=0 / qpmax=69 / qpstep=4 / cplxblur=20.0 / qblur=0.5 / ip_ratio=1.40 / aq=1:1.00
    Encoded date                             : UTC 2014-07-11 01:51:19
    Tagged date                              : UTC 2014-07-13 19:29:46
    Color primaries                          : BT.709-5, BT.1361, IEC 61966-2-4, SMPTE RP177
    Transfer characteristics                 : BT.709-5, BT.1361
    Matrix coefficients                      : BT.709-5, BT.1361, IEC 61966-2-4 709, SMPTE RP177

    Audio #1
    ID                                       : 2
    Format                                   : AAC
    Format/Info                              : Advanced Audio Codec
    Format profile                           : LC
    Codec ID                                 : 67
    Duration                                 : 52mn 5s
    Bit rate mode                            : Variable
    Bit rate                                 : 192 Kbps
    Maximum bit rate                         : 196 Kbps
    Channel(s)                               : 2 channels
    Channel positions                        : Front: L R
    Sampling rate                            : 48.0 KHz
    Compression mode                         : Lossy
    Stream size                              : 70.5 MiB (10%)
    Language                                 : Russian
    Encoded date                             : UTC 2014-07-13 19:29:39
    Tagged date                              : UTC 2014-07-13 19:29:46

    Audio #2
    ID                                       : 3
    Format                                   : AAC
    Format/Info                              : Advanced Audio Codec
    Format profile                           : LC
    Codec ID                                 : 67
    Duration                                 : 52mn 5s
    Bit rate mode                            : Variable
    Bit rate                                 : 192 Kbps
    Maximum bit rate                         : 195 Kbps
    Channel(s)                               : 2 channels
    Channel positions                        : Front: L R
    Sampling rate                            : 48.0 KHz
    Compression mode                         : Lossy
    Stream size                              : 70.5 MiB (10%)
    Language                                 : French
    Encoded date                             : UTC 2014-07-13 19:29:43
    Tagged date                              : UTC 2014-07-13 19:29:46


    Скриншоты:
    скриншот   скриншот   скриншот   скриншот   скриншот   скриншот   скриншот   скриншот   скриншот   скриншот  

    Раздача ведётся путём добавления новых серий. Добавлены 7-8 заключительные серии (23.07.2014).Просьба перекачать торрент файл.

    pb.wtf



  • Скачать Налёт через торрент http://i66.fastpic.ru/big/2014/0720/a6/376d397732cad4b2944334c34e2060a6.jpg Скачать фильм Налёт через торрент бесплантно в хорошем качестве Описание: Жизнь четверых сотрудников судебной полиции Парижского региона резко меняется, когда их друг и коллега Макс, несправедливо ... 10 10 10
    Info! Золотая раздача, скачанное не засчитывается.
    Торрент: Зарегистрирован [2014-07-25 01:07] · скачан: 66 раз
    Статус: √ проверено
    Размер: 5.75 GB
    Как cкачать? Как скачать Налёт через торрент | qTorrent

    % Раздел Тема Автор DL S | L
    Зарубежные сериалы [ 18.63 GB ] Налёт / Braquo / Сезон: 3 / Серии 1-8 из 8 [2014 BDRip 720p многоголосый закадровый) [BaibaK GEKADOL Скачать
    1 | 0


    Последний раз редактировалось: GEKADOL (2014-07-25 01:07), всего редактировалось 7 раз(а)

    28-11-2019 20:33  

    Отключить всю рекламу на сайте

    20-07-2014 04:11 Налёт Скачать торрент  

    Вот так сюрпиз!!!!!Серий то похож будет 8.как в предыдущих сезонах...
    День начинается с превосходной новости!!! +1pb.wtf



    20-07-2014 06:39 Налёт Скачать торрент  

    Ждал, ждал, ждал. Ура, ура, ура. А ходили слухи что хотели закрыть после второго сезона. А оно во как нежданчик.pb.wtf



    21-07-2014 12:57 Налёт Скачать торрент  

    КЛАСССС!pb.wtf



    25-07-2014 13:54 Налёт Скачать торрент  

    Я так понял что будет 4 сезон? Или 9 серия?pb.wtf



      Дорогой пользователь! Огромная просьба, поблагодарите релизера, оцените раздачу и оставьте свои комментарий, если Вы скачали Налёт через торрент бесплатно! Внесите свою лепту в развитие PiratBit!
      Комментировать посты могут только пользователи прошедшие не сложную регистрацию
      Показать сообщения:    

      Налёт через торрент
      Скачать бесплатно Налёт
      Налёт скачать торрент
      Налёт смотреть онлайн
      Cкачать фильм Налёт бесплатно
      Налёт скачать торрент в хорошем качестве
      Налёт смотреть онлайн бесплатно в хорошем качестве


      Вы не можете начинать темы
      Вы не можете отвечать на сообщения
      Вы не можете редактировать свои сообщения
      Вы не можете удалять свои сообщения
      Вы не можете голосовать в опросах
      Вы не можете прикреплять файлы к сообщениям
      Вы можете скачивать файлы