2 сезон

iTunes

MVO

1

2 сезон

iTunes

iTunes

1 сезон

RePack

30

Ultimate

ВАЖНО

ИГРА 18+

pack

RePack

MK11
pack

Легкие деньги

RePack

jed

RePack

fifa19

RePack

RDR2

RePack

NEED FOR SPEED™ PAYBACK

4 сезон

9 сезон

Бесстыжие 9 сезон

Все сериалы

все сериалы на PB.wtf

RePack

FAR CRY 5

Anonymous, доброй ночи, мы не успеваем собрать деньги на оплату серверов за декабрь и январь, помогите нам пожалуйста в это трудное время. В качестве благодарности мы отключим Вам всю рекламу на сайте (укажите свой ник в строку Ваше имя)!

×
  
Magnet ссылка

13-й район / Banlieue 13 (Пьер Морель / Pierre Morel) [2004 г., Фантастика, боевик, триллер, HDRip-AVC, Дубляж, Лицензия] От R.G. PiratFilms pb.wtf

13-й район через торрент pb.wtf

Размер: 1.5 GB | Добавлен: 6 лет 5 мес. назад | Торрент скачан:51 раз
Скачать  

21-07-2014 00:17 13-й район Скачать торрент  

Год выпуска: 2004
Страна: Франция
Жанр: Фантастика, боевик, триллер
Продолжительность: 1:24:34
Перевод: Дубляж, Лицензия

Режиссер: Пьер Морель / Pierre Morel

В ролях: Дэвид Белль, Сирил Раффаэлли, Тони Д’Амарио, Биби Насери, Дани Вериссимо, Франсуа Шатто, Николас Войрион, Патрик Оливье, Самир Гесми, Жером Гаднер и др.

Описание: 2010 год, Париж, из-за разгула преступности некоторые особо опасные районы французской столицы превращены в закрытые зоны и отгорожены от благополучных кварталов бетонной стеной. За ней бурлит совсем другая жизнь: здесь процветает торговля наркотиками и оружием, здесь даже дети не выходят из дома без оружия, здесь давно не работают школы и поликлиники, здесь полиция не стоит на страже закона, а лишь защищает себя или же сама поддерживает беззаконие. Главарю одной из банд удается завладеть нейтронной бомбой. Чтобы обезвредить ее, в 13-й район отправляется офицер спецназ Дамьен. Проникать в опасные зоны — его профессия, однако на этот раз ему все-таки нужен проводник. Союзником Дамьена становится Лейто, отчаянный парень, сестра которого похищена тем же самым главарем…

Качество: HDRip-AVC
Исходник :BDRip 1080р
Формат: MKV
Видео кодек: AVC
Аудио кодек: AC3
Видео: AVC, 1024x436 (2.35:1), 23.976 fps, 2 092 Kbps (0.195 bit/pixel)
Аудио: AC-3, 48.0 KHz, 6 ch, 448 Kbps, CBR
Релиз от:
скриншот   скриншот   скриншот   скриншот   скриншот   скриншот   скриншот   скриншот  

Код:

---[Information] [21.07.2014 2:23:36] x264 [info]: frame I:1661  Avg QP:15.77  size: 60753  PSNR Mean Y:47.00 U:51.28 V:51.29 Avg:48.00 Global:47.60
---[Information] [21.07.2014 2:23:36] x264 [info]: frame P:28750 Avg QP:18.89  size: 19961  PSNR Mean Y:44.71 U:49.54 V:49.41 Avg:45.78 Global:45.22
---[Information] [21.07.2014 2:23:36] x264 [info]: frame B:91245 Avg QP:21.00  size:  7138  PSNR Mean Y:43.80 U:49.46 V:49.34 Avg:44.97 Global:44.39
---[Information] [21.07.2014 2:23:36] x264 [info]: consecutive B-frames:  3.5%  3.9%  9.9% 25.9% 21.0% 24.4%  6.2%  3.2%  2.0%

Общее
Уникальный идентификатор                 : 241471448070815008556578174218767417349 (0xB5A9B591C3435F2097516353011BC005)
Полное имя                               : D:\Games\Banlieue 13.2004.HDRip-AVC.by.White Smoke.R.G. PiratFilms.mkv
Формат                                   : Matroska
Версия формата                           : Version 4 / Version 2
Размер файла                             : 1,50 Гбайт
Продолжительность                        : 1 ч. 24 м.
Общий поток                              : 2541 Кбит/сек
Дата кодирования                         : UTC 2014-07-20 23:25:35
Программа кодирования                    : mkvmerge v6.8.0 ('Theme for Great Cities') 64bit built on Mar  2 2014 21:34:26
Библиотека кодирования                   : libebml v1.3.0 + libmatroska v1.4.1

Видео
Идентификатор                            : 1
Формат                                   : AVC
Формат/Информация                        : Advanced Video Codec
Профиль формата                          : High@L4.1
Параметр CABAC формата                   : Да
Параметр ReFrames формата                : 12 кадров
Идентификатор кодека                     : V_MPEG4/ISO/AVC
Продолжительность                        : 1 ч. 24 м.
Битрейт                                  : 2092 Кбит/сек
Ширина                                   : 1024 пикселя
Высота                                   : 436 пикселей
Соотношение сторон                       : 2,35:1
Режим частоты кадров                     : Постоянный
Частота кадров                           : 23,976 кадра/сек
Цветовое пространство                    : YUV
Субдискретизация насыщенности            : 4:2:0
Битовая глубина                          : 8 бит
Тип развёртки                            : Прогрессивная
Бит/(Пиксели*Кадры)                      : 0.195
Размер потока                            : 1,21 Гбайт (80%)
Библиотека кодирования                   : x264 core 142 r2431 ac76440
Настройки программы                      : cabac=1 / ref=12 / deblock=1:-3:-3 / analyse=0x3:0x113 / me=hex / subme=7 / psy=1 / psy_rd=1.00:0.00 / mixed_ref=1 / me_range=16 / chroma_me=1 / trellis=1 / 8x8dct=1 / cqm=0 / deadzone=21,11 / fast_pskip=1 / chroma_qp_offset=-2 / threads=12 / lookahead_threads=3 / sliced_threads=0 / nr=0 / decimate=1 / interlaced=0 / bluray_compat=0 / constrained_intra=0 / bframes=8 / b_pyramid=2 / b_adapt=2 / b_bias=8 / direct=1 / weightb=1 / open_gop=0 / weightp=2 / keyint=240 / keyint_min=23 / scenecut=40 / intra_refresh=0 / rc_lookahead=40 / rc=2pass / mbtree=1 / bitrate=2092 / ratetol=1.0 / qcomp=0.65 / qpmin=0 / qpmax=69 / qpstep=4 / cplxblur=20.0 / qblur=0.5 / ip_ratio=1.40 / aq=1:1.00
Язык                                     : English
Default                                  : Да
Forced                                   : Нет

Аудио
Идентификатор                            : 2
Формат                                   : AC-3
Формат/Информация                        : Audio Coding 3
Расширение режима                        : CM (complete main)
Параметр Endianness формата              : Big
Идентификатор кодека                     : A_AC3
Продолжительность                        : 1 ч. 24 м.
Вид битрейта                             : Постоянный
Битрейт                                  : 448 Кбит/сек
Каналы                                   : 6 каналов
Расположение каналов                     : Front: L C R, Side: L R, LFE
Частота                                  : 48,0 КГц
Битовая глубина                          : 16 бит
Метод сжатия                             : С потерями
Размер потока                            : 271 Мбайт (18%)
Default                                  : Да
Forced                                   : Нет


За Обложку и Логотип к релизу спасибо XLASER
Соавтор сценария и исполнитель одной из ролей Биби Насери — брат популярного французского актера Сэми Насери.
Исполнитель одной из главных ролей Давид Бель, является создателем новой культовой дисциплины «Паркур».
Первоначально на место режиссера фильма был приглашен Александр Ажа.
Некоторые члены банды в 13-ом районе носят футболки с символикой футбольных клубов Американской Национальной футбольной лиги (НФЛ). Съемочная группа не добилась разрешения от Ассоциации игроков НФЛ демонстрировать имя хоть какого-либо игрока, таким образом, по рекомендации адвокатов студии имена игроков с футболок были убраны до того, как фильм был выпущен в прокат.
Люк Бессон написал роль Лолы специально для Дани Вериссимо.
Хотя Биби Насери был соавтором сценария, он был вынужден прослушиваться на роль Тахи вместе с другими актерами.
Тони Д`Амарио рассматривался на роль Тахи, но в итоге получил предложение сыграть К2.
Полностью производство фильма (идея, сценарий, кастинг, съемки и т. д.) заняло 10 месяцев, с января по октябрь 2004 г.
pb.wtf



Скачать 13-й район через торрент http://pic.kartinco.top/new/img/2014-07/21/o7vi240ra7ixb2zr2p6hdgc6u.png Скачать фильм 13-й район через торрент бесплантно в хорошем качестве Описание: 2010 год, Париж, из-за разгула преступности некоторые особо опасные районы французской столицы превращены в закрытые зоны и ... 9.9 10 14
Info! Золотая раздача, скачанное не засчитывается.
Торрент: Зарегистрирован [2014-07-21 00:17] · скачан: 51 раз
Статус: √ проверено
Размер: 1.5 GB
Как cкачать? Как скачать 13-й район через торрент | UTorrent

28-11-2019 20:33  

Отключить всю рекламу на сайте

    Дорогой пользователь! Огромная просьба, поблагодарите релизера, оцените раздачу и оставьте свои комментарий, если Вы скачали 13-й район через торрент бесплатно! Внесите свою лепту в развитие PiratBit!
    Комментировать посты могут только пользователи прошедшие не сложную регистрацию
    Показать сообщения:    

    13-й район через торрент
    Скачать бесплатно 13-й район
    13-й район скачать торрент
    13-й район смотреть онлайн
    Cкачать фильм 13-й район бесплатно
    13-й район скачать торрент в хорошем качестве
    13-й район смотреть онлайн бесплатно в хорошем качестве


    Вы не можете начинать темы
    Вы не можете отвечать на сообщения
    Вы не можете редактировать свои сообщения
    Вы не можете удалять свои сообщения
    Вы не можете голосовать в опросах
    Вы не можете прикреплять файлы к сообщениям
    Вы можете скачивать файлы