2 сезон

iTunes

MVO

1

2 сезон

iTunes

iTunes

1 сезон

RePack

30

Ultimate

ВАЖНО

ИГРА 18+

pack

RePack

MK11
pack

Легкие деньги

RePack

jed

RePack

fifa19

RePack

RDR2

RePack

NEED FOR SPEED™ PAYBACK

4 сезон

9 сезон

Бесстыжие 9 сезон

Все сериалы

все сериалы на PB.wtf

RePack

FAR CRY 5

Anonymous, доброе утро, мы не успеваем собрать деньги на оплату серверов за декабрь и январь, помогите нам пожалуйста в это трудное время. В качестве благодарности мы отключим Вам всю рекламу на сайте (укажите свой ник в строку Ваше имя)!

×
  
Magnet ссылка

Узел дьявола / Devil's Knot (Атом Эгоян) [2013 г., драма, триллер, криминал, HDRip, Профессиональный двухголосый] pb.wtf

Узел дьявола через торрент pb.wtf

Размер: 1.37 GB | Добавлен: 6 лет 5 мес. назад | Торрент скачан:403 раза
Скачать  

21-07-2014 04:34 Узел дьявола Скачать торрент  

Узел дьявола / Devil's Knot

Год выпуска: 2013
Страна: США
Выпущено: Worldview Entertainment, Rocket Science VFX
Жанр: драма, триллер, криминал
Продолжительность: 01:54:14
Перевод: Профессиональный двухголосый

Режиссер: Атом Эгоян
Продюссер: Пол Харрис Бордман, Элизабет Фаулер, Кларк Петерсон
Сценарий: Пол Харрис Бордман, Скотт Дерриксон, Мара Леверитт
Премьера в мире: 8 сентября 2013

IMDB 5.90 (4815)


В ролях: Колин Фёрт, Риз Уизерспун, Дэйн ДеХаан, Мирей Инос, Брюс Гринвуд, Элиас Котеас, Стивен Мойер, Алессандро Нивола, Эми Райан, Джеймс Хэмрик

Описание: Небольшой американский городок потрясен зверским убийством трех детей. Трех подростков обвиняют в этом злодеянии, всего лишь на том основании, что они носят длинные волосы, черную одежду и слушают «сатанинскую» музыку. Только один человек в городе встает на их защиту — адвокат Рон Лакс. Он всеми силами борется против предубеждений и пытается спасти три невинные жизни.

Качество: HDRip
Формат: AVI
Видео кодек: XviD
Аудио кодек: AC3
Видео: XviD, 1320 Кбит/с, 720x400, 23.976 fps, 0.191
Аудио: AC3, 6 ch, 384 Кбит/с, 48.0 KHz
General
Complete name : /home/sb753/files/Uzel.Dyavola.2013.P2.HDRip.1400MB.avi
Format : AVI
Format/Info : Audio Video Interleave
File size : 1.37 GiB
Duration : 1h 54mn
Overall bit rate : 1 713 Kbps
Writing application : VirtualDubMod 1.5.10.2 (build 2540/release)
Writing library : VirtualDubMod build 2540/release

Video
ID : 0
Format : MPEG-4 Visual
Format profile : Advanced Simple@L5
Format settings, BVOP : 2
Format settings, QPel : No
Format settings, GMC : No warppoints
Format settings, Matrix : Default (H.263)
Codec ID : XVID
Codec ID/Hint : XviD
Duration : 1h 54mn
Bit rate : 1 320 Kbps
Width : 720 pixels
Height : 400 pixels
Display aspect ratio : 16:9
Frame rate : 23.976 fps
Color space : YUV
Chroma subsampling : 4:2:0
Bit depth : 8 bits
Scan type : Progressive
Compression mode : Lossy
Bits/(Pixel*Frame) : 0.191
Stream size : 1.05 GiB (77%)
Writing library : XviD 1.2.1 (UTC 2008-12-04)

Audio
ID : 1
Format : AC-3
Format/Info : Audio Coding 3
Mode extension : CM (complete main)
Format settings, Endianness : Big
Codec ID : 2000
Duration : 1h 54mn
Bit rate mode : Constant
Bit rate : 384 Kbps
Channel(s) : 6 channels
Channel positions : Front: L C R, Side: L R, LFE
Sampling rate : 48.0 KHz
Bit depth : 16 bits
Compression mode : Lossy
Stream size : 314 MiB (22%)
Alignment : Split accross interleaves
Interleave, duration : 42 ms (1.00 video frame)
Interleave, preload duration : 500 ms
pb.wtf



Скачать Узел дьявола через торрент http://i68.fastpic.ru/big/2014/0721/6a/689d6ef075455a6ce3f6b4206e5e696a.png Скачать фильм Узел дьявола через торрент бесплантно в хорошем качестве Описание: Небольшой американский городок потрясен зверским убийством трех детей. Трех подростков обвиняют в этом злодеянии, всего лишь на ... 9.1 10 9
Торрент: Зарегистрирован [2014-07-21 04:34] · скачан: 403 раз
Статус: √ проверено
Размер: 1.37 GB
Как cкачать? Как скачать Узел дьявола через торрент | UTorrent

28-11-2019 20:33  

Отключить всю рекламу на сайте

21-07-2014 04:57 Узел дьявола Скачать торрент  

предчувствую фильм-сплошную"говорильню"....pb.wtf



21-07-2014 12:24 Узел дьявола Скачать торрент  

Сюжет ничего но фильм не понравился.pb.wtf



15-08-2014 14:24 Узел дьявола Скачать торрент  

непонятно, отчего последнее время все стали снимать полудетективы о событиях, происходящих в америке 70-90-х годов. обязательно - в маленьких городках. небольшой бюджет, нелучшие актеры, основано на реальных событиях.
и в конце концов - смотреть можно, но не хочетсяpb.wtf



    Дорогой пользователь! Огромная просьба, поблагодарите релизера, оцените раздачу и оставьте свои комментарий, если Вы скачали Узел дьявола через торрент бесплатно! Внесите свою лепту в развитие PiratBit!
    Комментировать посты могут только пользователи прошедшие не сложную регистрацию
    Показать сообщения:    

    Узел дьявола через торрент
    Скачать бесплатно Узел дьявола
    Узел дьявола скачать торрент
    Узел дьявола смотреть онлайн
    Cкачать фильм Узел дьявола бесплатно
    Узел дьявола скачать торрент в хорошем качестве
    Узел дьявола смотреть онлайн бесплатно в хорошем качестве


    Вы не можете начинать темы
    Вы не можете отвечать на сообщения
    Вы не можете редактировать свои сообщения
    Вы не можете удалять свои сообщения
    Вы не можете голосовать в опросах
    Вы не можете прикреплять файлы к сообщениям
    Вы можете скачивать файлы