2 сезон

iTunes

MVO

1

2 сезон

iTunes

iTunes

1 сезон

RePack

30

Новинка

ВАЖНО

ИГРА 18+

pack

RePack

MK11
pack

Легкие деньги

RePack

jed

RePack

fifa19

RePack

RDR2

RePack

NEED FOR SPEED™ PAYBACK

4 сезон

9 сезон

Бесстыжие 9 сезон

Все сериалы

все сериалы на PB.wtf

RePack

FAR CRY 5

Anonymous, добрый день, мы не успеваем собрать деньги на оплату серверов за декабрь и январь, помогите нам пожалуйста в это трудное время. В качестве благодарности мы отключим Вам всю рекламу на сайте (укажите свой ник в строку Ваше имя)!

×
  
Magnet ссылка

Мумия возвращается / The Mummy Returns (Стивен Соммерс) [2001 г., ужасы, фэнтези, боевик, триллер, комедия, BDRip 720p, Профессиональный (многоголосый) (лицензия)] (60 fps) pb.wtf

Мумия возвращается через торрент pb.wtf

Раздают: 2 [ 0 KB/s ]
Размер: 7.03 GB | Добавлен: 6 лет 5 мес. назад | Торрент скачан:177 раз
Скачать  

21-07-2014 06:52 Мумия возвращается Скачать торрент  

Мумия возвращается / The Mummy Returns

Год выпуска: 2001
Страна: США
Жанр: ужасы, фэнтези, боевик, триллер, комедия
Продолжительность: 02:09:32
Перевод: Профессиональный (многоголосый) (Лицензия)
Субтитры: Rus (Форс.), Rus (полные), Eng (полные)

Режиссер: Стивен Соммерс
Продюссер: Шон Дэниэл, Боб Дюксэй, Джеймс Джекс
Сценарий: Стивен Соммерс

Бюджет: $98 000 000
Премьера в мире: 29 апреля 2001



В ролях: Брендан Фрэйзер, Рэйчел Уайз, Джон Ханна, Арнольд Вослу, Одед Фехр, Фредди Боут, Патрисия Веласкес, Алун Армстронг, Шон Паркc, Адевале Акиннуойе-Агбайе, Дуэйн Джонсон

Описание: Прошло десять лет. Рик и Эвелин наслаждаются счастливым браком, воспитывая своего девятилетнего сына Алекса. Тем временем ученые обнаруживают мумию Имхотепа и перевозят в Лондонской Музей. Остатки древнего зла все еще теплятся внутри саркофага, и Имхотеп вновь вырывается на волю. Однако тайные ритуалы египетских жрецов вызывают к жизни силу, куда более могущественную. В столкновении между ними на чаши весов ложится жизнь всего мира. Рик и Эвелин отчаянно пытаются противостоять злу и спасти своего сына, пока не стало слишком поздно...


Доп. информация:
Прежде чем скачивать фильм полностью, скачайте "сэмпл", и проверьте будет ли воспроизводится видео на вашем устройстве!

Качество: BDRip 720p
Формат: MKV
Видео кодек: H.264
Аудио кодек: AC3
Видео: x264, 1280 x 720, (16:9) 59,880 fps, 5140 Kbps, (0.093 bit/pixel)
Аудио#1: Русский AC3 5.1, 448 kb/s, 48,0 kHz, Blu-Ray
Аудио#2: Русский AC3 5.1, 448 kb/s, 48,0 kHz, Дубляж
Аудио#3: Русский AC3 5.1, 640 kb/s, 48,0 kHz, ORT
Аудио#4: Русский AC3 5.1, 448 kb/s, 48,0 kHz, Kinomania
Аудио#5: Английский AC3 5.1, 640 kb/s, 48,0 kHz



скриншот  скриншот  скриншот  скриншот  скриншот  скриншот  
x264 [info]: frame I:3245 Avg QP:15.87 size: 86673
x264 [info]: frame P:116926 Avg QP:18.50 size: 23523
x264 [info]: frame B:345662 Avg QP:21.36 size: 5673
x264 [info]: consecutive B-frames: 2.6% 3.7% 11.3% 22.4% 60.0%

Общее
Уникальный идентификатор : 233870885166287357244380933642825905611 (0xAFF1E4E2D5785EA9B2EB5B8D6F1235CB)
Полное имя : D:\The.Mummy.Returns.(2001).720p.(60fps).(CROP).mkv
Формат : Matroska
Версия формата : Version 4 / Version 2
Размер файла : 7,03 Гбайт
Продолжительность : 2 ч. 9 м.
Общий поток : 7763 Кбит/сек
Название фильма : Мумия возвращается / The Mummy Returns (2001) BDRip 720 60fps (CROP)
Дата кодирования : UTC 2014-07-13 14:52:47
Программа кодирования : mkvmerge v6.2.0 ('Promised Land') built on Apr 28 2013 12:22:01
Библиотека кодирования : libebml v1.3.0 + libmatroska v1.4.0

Видео
Идентификатор : 1
Формат : AVC
Формат/Информация : Advanced Video Codec
Профиль формата : High@L4.1
Параметр CABAC формата : Да
Параметр ReFrames формата : 4 кадра
Идентификатор кодека : V_MPEG4/ISO/AVC
Продолжительность : 2 ч. 9 м.
Битрейт : 5140 Кбит/сек
Ширина : 1280 пикселей
Высота : 720 пикселей
Соотношение сторон : 16:9
Режим частоты кадров : Постоянный
Частота кадров : 59,880 кадров/сек
Частота кадров в оригинале : 59,940 кадров/сек
Цветовое пространство : YUV
Субдискретизация насыщенности : 4:2:0
Битовая глубина : 8 бит
Тип развёртки : Прогрессивная
Бит/(Пиксели*Кадры) : 0.093
Размер потока : 4,51 Гбайт (64%)
Заголовок : The Mummy Returns (2001) BDRip 720 60fps(CROP).mkv
Библиотека кодирования : x264 core 130 r2273 b3065e6
Настройки программы : cabac=1 / ref=4 / deblock=1:-3:-3 / analyse=0x3:0x113 / me=umh / subme=9 / psy=1 / psy_rd=1.00:0.15 / mixed_ref=1 / me_range=24 / chroma_me=1 / trellis=1 / 8x8dct=1 / cqm=0 / deadzone=21,11 / fast_pskip=1 / chroma_qp_offset=-3 / threads=3 / lookahead_threads=1 / sliced_threads=0 / nr=0 / decimate=1 / interlaced=0 / bluray_compat=0 / constrained_intra=0 / bframes=4 / b_pyramid=2 / b_adapt=2 / b_bias=0 / direct=3 / weightb=1 / open_gop=0 / weightp=2 / keyint=250 / keyint_min=25 / scenecut=40 / intra_refresh=0 / rc_lookahead=50 / rc=2pass / mbtree=1 / bitrate=5140 / ratetol=1.0 / qcomp=0.60 / qpmin=0 / qpmax=69 / qpstep=4 / cplxblur=20.0 / qblur=0.5 / ip_ratio=1.40 / aq=1:1.00
Язык : English
Default : Да
Forced : Нет

Аудио #1
Идентификатор : 2
Формат : AC-3
Формат/Информация : Audio Coding 3
Расширение режима : CM (complete main)
Параметр Endianness формата : Big
Идентификатор кодека : A_AC3
Продолжительность : 2 ч. 9 м.
Вид битрейта : Постоянный
Битрейт : 448 Кбит/сек
Каналы : 6 каналов
Расположение каналов : Front: L C R, Side: L R, LFE
Частота : 48,0 КГц
Битовая глубина : 16 бит
Метод сжатия : С потерями
Размер потока : 415 Мбайт (6%)
Заголовок : Blu-Ray
Язык : Russian
Default : Да
Forced : Нет

Аудио #2
Идентификатор : 3
Формат : AC-3
Формат/Информация : Audio Coding 3
Расширение режима : CM (complete main)
Параметр Endianness формата : Big
Идентификатор кодека : A_AC3
Продолжительность : 2 ч. 9 м.
Вид битрейта : Постоянный
Битрейт : 448 Кбит/сек
Каналы : 6 каналов
Расположение каналов : Front: L C R, Side: L R, LFE
Частота : 48,0 КГц
Битовая глубина : 16 бит
Метод сжатия : С потерями
Размер потока : 415 Мбайт (6%)
Заголовок : Dub
Язык : Russian
Default : Нет
Forced : Нет

Аудио #3
Идентификатор : 4
Формат : AC-3
Формат/Информация : Audio Coding 3
Расширение режима : CM (complete main)
Параметр Endianness формата : Big
Идентификатор кодека : A_AC3
Продолжительность : 2 ч. 9 м.
Вид битрейта : Постоянный
Битрейт : 640 Кбит/сек
Каналы : 6 каналов
Расположение каналов : Front: L C R, Side: L R, LFE
Частота : 48,0 КГц
Битовая глубина : 16 бит
Метод сжатия : С потерями
Размер потока : 593 Мбайт (8%)
Заголовок : ORT
Язык : Russian
Default : Нет
Forced : Нет

Аудио #4
Идентификатор : 5
Формат : AC-3
Формат/Информация : Audio Coding 3
Расширение режима : CM (complete main)
Параметр Endianness формата : Big
Идентификатор кодека : A_AC3
Продолжительность : 2 ч. 9 м.
Вид битрейта : Постоянный
Битрейт : 448 Кбит/сек
Каналы : 6 каналов
Расположение каналов : Front: L C R, Side: L R, LFE
Частота : 48,0 КГц
Битовая глубина : 16 бит
Метод сжатия : С потерями
Размер потока : 415 Мбайт (6%)
Заголовок : Kinomania
Язык : Russian
Default : Нет
Forced : Нет

Аудио #5
Идентификатор : 6
Формат : AC-3
Формат/Информация : Audio Coding 3
Расширение режима : CM (complete main)
Параметр Endianness формата : Big
Идентификатор кодека : A_AC3
Продолжительность : 2 ч. 9 м.
Вид битрейта : Постоянный
Битрейт : 640 Кбит/сек
Каналы : 6 каналов
Расположение каналов : Front: L C R, Side: L R, LFE
Частота : 48,0 КГц
Битовая глубина : 16 бит
Метод сжатия : С потерями
Размер потока : 593 Мбайт (8%)
Заголовок : Original
Язык : English
Default : Нет
Forced : Нет

Текст #1
Идентификатор : 7
Формат : UTF-8
Идентификатор кодека : S_TEXT/UTF8
Идентификатор кодека/Информация : UTF-8 Plain Text
Заголовок : Forced
Язык : Russian
Default : Да
Forced : Нет

Текст #2
Идентификатор : 8
Формат : UTF-8
Идентификатор кодека : S_TEXT/UTF8
Идентификатор кодека/Информация : UTF-8 Plain Text
Заголовок : Full
Язык : Russian
Default : Нет
Forced : Нет

Текст #3
Идентификатор : 9
Формат : UTF-8
Идентификатор кодека : S_TEXT/UTF8
Идентификатор кодека/Информация : UTF-8 Plain Text
Заголовок : Full
Язык : English
Default : Нет
Forced : Нет

Меню
00:00:00.000 : en: Legend Of The Scorpion King
00:04:41.490 : en: The Family O'Connell
00:10:03.520 : en: Visions Of The Past
00:13:33.396 : en: The Bracelet Of Anubis
00:17:03.898 : en: The Unholy Treasure
00:23:20.774 : en: Alex's New Bracelet
00:26:17.159 : en: The Siege Of O'Connell Manor
00:35:25.248 : en: Resurrection
00:42:01.686 : en: The Soldier Mummies
00:46:51.726 : en: Kidnapped
00:56:03.151 : en: Izzy's Magic Carpet
01:06:37.410 : en: Visions Of Nefertiri
01:17:00.658 : en: The Wall Of Water
01:27:33.665 : en: The Pygmy Mummies
01:35:27.639 : en: A Death In The Family
01:42:44.075 : en: Face to Face
01:47:43.791 : en: The Scorpion King
01:51:20.841 : en: To Kill A Scorpion
01:53:26.383 : en: Return To The Underworld
02:01:49.177 : en: End Credits

pb.wtf



Скачать Мумия возвращается через торрент http://pic.kartinco.top/images/6/qutrb.jpg Скачать фильм Мумия возвращается через торрент бесплантно в хорошем качестве Описание: Прошло десять лет. Рик и Эвелин наслаждаются счастливым браком, воспитывая своего девятилетнего сына Алекса. Тем временем ученые ... 9.9 10 19
Info! Золотая раздача, скачанное не засчитывается.
Торрент: Зарегистрирован [2014-07-21 06:52] · скачан: 177 раз
Статус: √ проверено
Размер: 7.03 GB
Как cкачать? Как скачать Мумия возвращается через торрент | UTorrent

% Раздел Тема Автор DL S | L
Фильмы [HD 720p, 1080p] (Хороший звук DUB, MVO) [ 5.96 GB ] Мумия возвращается / The Mummy Returns [2001 HDDVDRip 1080p HEVC ] Мичман37 Скачать
1 | 0
Ultra HD (UHD: 2K, 4K, 8K) — видео сверхвысокой чёткости [ 57.74 GB ] Мумия возвращается / The Mummy Returns [2001 UHD BDRemux 2160p] DUB + 2xMVO + DVO + 3xAVO sheker187 Скачать
1 | 0
Фильмы (Blu-ray, BD-Remux, HDDVD) [ 22.09 GB ] Мумия возвращается / The Mummy Returns [2001 HD-DVD-Remux MVO] Артронах Скачать
1 | 0
Фильмы 2001-2005 [ 1.95 GB ] Мумия возвращается / The Mummy Returns [2001 BDRip ] slaventi-69 Скачать
1 | 0

28-11-2019 20:33  

Отключить всю рекламу на сайте

21-07-2014 10:13 Мумия возвращается Скачать торрент  

эээм...только у меня такой трабл???...20 сек показывает и геймове...pb.wtf



21-07-2014 10:20 Мумия возвращается Скачать торрент  

markizVi писал(а):

эээм...только у меня такой трабл???...20 сек показывает и геймове...

Проверил на встроенном проигрывателе в TV LG 42 - все идет, смотрите свое железо.pb.wtf



15-04-2015 12:11 Мумия возвращается Скачать торрент  

дайте скорости этого чудного фильма!!!!!!!!!!!!!!pb.wtf



15-04-2015 12:12 Мумия возвращается Скачать торрент  

дайте скоростиpb.wtf



15-04-2015 12:12 Мумия возвращается Скачать торрент  

не заливается на ноутpb.wtf



15-04-2015 12:24 Мумия возвращается Скачать торрент  

вобще нет скорости встаньте на раздачуpb.wtf



06-08-2015 12:43 Мумия возвращается Скачать торрент  

На раздачу вернитесь плиз.pb.wtf



28-06-2020 13:36 Мумия возвращается Скачать торрент  

Кто нибудь есть на раздаче? никого ...
Никого нет? ... заходи и бери что хошь? pb.wtf



28-06-2020 13:49 Мумия возвращается Скачать торрент  

V&S писал(а):

Кто нибудь есть на раздаче? никого ...
Никого нет? ... заходи и бери что хошь?

Есть кнопочка " Позвать скачавших ", слабо тыкнуть, может кто и появитьсяpb.wtf



28-06-2020 17:01 Мумия возвращается Скачать торрент  

slaventi-69 писал(а):

V&S писал(а):

Кто нибудь есть на раздаче? никого ...
Никого нет? ... заходи и бери что хошь?

Есть кнопочка " Позвать скачавших ", слабо тыкнуть, может кто и появиться

Спасибо за релиз!
Искал кнопку не нашёл, сейчас нашёл, спасибо!
Помогу с раздачей!pb.wtf



19-07-2020 08:29 Мумия возвращается Скачать торрент  

На раздаче оставайтесь!!!!!!!!!!!!!!!!!!!!!!!!!!!!!!!!!!!!!!!!!!!!!!!!!!!!!!!!!!!!!!!!!!!!!!!!!!!!!!!!!!!!!!!!!!!!!!!!!!!!!!!!!!!!!!!!!!!!!!!!!!!!!!!!!!!!!!!!!!!!!!!!!!!!!!!!!!!!!!!!!!!!!!!!!!!!!!!!!!!!!!!!!!!!!!!!!!!!!!!!!!!!!!!!!!!!!!!!!!!!!!!!!!!!!!!!!!!!!!!!!!!!!!!!!!!!!!!!!!!!!!!!!!!!!!!!!!!!!!pb.wtf



19-07-2020 09:51 Мумия возвращается Скачать торрент  

Встаньте на раздачу ироды)))))))))))))pb.wtf



20-07-2020 06:20 Мумия возвращается Скачать торрент  

Jer1k0 писал(а):

Встаньте на раздачу ироды)))))))))))))

Ирод у тебя в штанах! Хочешь изменить мир начни с себя! Ты не раздаёшь ничего вообще! Так что захлопни !pb.wtf



    Дорогой пользователь! Огромная просьба, поблагодарите релизера, оцените раздачу и оставьте свои комментарий, если Вы скачали Мумия возвращается через торрент бесплатно! Внесите свою лепту в развитие PiratBit!
    Комментировать посты могут только пользователи прошедшие не сложную регистрацию
    Показать сообщения:    

    Мумия возвращается через торрент
    Скачать бесплатно Мумия возвращается
    Мумия возвращается скачать торрент
    Мумия возвращается смотреть онлайн
    Cкачать фильм Мумия возвращается бесплатно
    Мумия возвращается скачать торрент в хорошем качестве
    Мумия возвращается смотреть онлайн бесплатно в хорошем качестве


    Вы не можете начинать темы
    Вы не можете отвечать на сообщения
    Вы не можете редактировать свои сообщения
    Вы не можете удалять свои сообщения
    Вы не можете голосовать в опросах
    Вы не можете прикреплять файлы к сообщениям
    Вы можете скачивать файлы