2 сезон

iTunes

MVO

1

2 сезон

iTunes

iTunes

1 сезон

RePack

30

Новинка

ВАЖНО

ИГРА 18+

pack

RePack

MK11
pack

Легкие деньги

RePack

jed

RePack

fifa19

RePack

RDR2

RePack

NEED FOR SPEED™ PAYBACK

4 сезон

9 сезон

Бесстыжие 9 сезон

Все сериалы

все сериалы на PB.wtf

RePack

FAR CRY 5

Anonymous, доброй ночи, мы не успеваем собрать деньги на оплату серверов за декабрь и январь, помогите нам пожалуйста в это трудное время. В качестве благодарности мы отключим Вам всю рекламу на сайте (укажите свой ник в строку Ваше имя)!

×
  
Magnet ссылка

Мой Аттила Марсель / Attila Marcel (Сильвен Шомэ / Sylvain Chomet) [2013, Франция, комедия, HDRip, Дубляж] iTunes pb.wtf

Мой Аттила Марсель через торрент pb.wtf

Размер: 1.37 GB | Добавлен: 6 лет 5 мес. назад | Торрент скачан:527 раз
Скачать  

17-07-2014 02:53 Мой Аттила Марсель Скачать торрент  

Мой Аттила Марсель / Attila Marcel


Год выпуска: 2013
Страна: Франция
Жанр:комедия
Продолжительность:01:46:10
Перевод:Дубляж - [Лицензия / iTunes]
Режиссер:Сильвен Шомэ / Sylvain Chomet

  • В ролях:

    Гийом Гуи (Paul / Attila Marcel), Анн Ле Ни (Mme Proust), Бернадетт Лафон (Tante Annie), Элен Венсан (Tante Anna), Луис Рего (M. Coelho), Фанни Турон (Anita), Kea Kaing (Michelle), Жан-Клод Дрейфус (M. Kruzinsky), Венсан Деньяр (Gégé), Сирил Коутон (Le docteur), Филипп Сутан (Le concierge), Гийем Пеллегрин (M. Chassepot de Pissy)

  • Описание:
    Полю тридцать лет, он живет в парижской квартире со своими тетями, двумя пожилыми аристократками, которые воспитывали его с двух лет и мечтают о том, чтобы он стал пианистом-виртуозом. Жизнь Поля - повседневная рутина, ограничивающаяся пианино в гостиной и школой танцев его тети, в которой он работает аккомпаниатором. Изолированный от внешнего мира, Поль стареет, так и не успев познакомиться с жизнью... До того дня, как происходит его встреча с мадам Пруст, соседкой с четвертого этажа. У этой эксцентричной женщины имеется рецепт травяного чая, который может с помощью музыки вызвать давно похороненные воспоминания...

  • Мировая премьера:24 августа 2013


      Качество: HDRip
      Формат:AVI
      Видео кодек: XviD
      Аудио кодек:AC3
      Видео: 720x384 (1.875), 1449 kbps, 24 fps
      Аудио: 5.1/ 48 kHz/ 384 kbps/ AC3


    Код:

    General
    Complete name                            : D:\Торенты\Moy.Attila.Marsel.2013.D.HDRip.1400MB.avi
    Format                                   : AVI
    Format/Info                              : Audio Video Interleave
    File size                                : 1.37 GiB
    Duration                                 : 1h 46mn
    Overall bit rate                         : 1 843 Kbps
    Writing application                      : VirtualDubMod 1.5.10.2 (build 2540/release)
    Writing library                          : VirtualDubMod build 2540/release

    Video
    ID                                       : 0
    Format                                   : MPEG-4 Visual
    Format profile                           : Advanced Simple@L5
    Format settings, BVOP                    : 2
    Format settings, QPel                    : No
    Format settings, GMC                     : No warppoints
    Format settings, Matrix                  : Default (H.263)
    Codec ID                                 : XVID
    Codec ID/Hint                            : XviD
    Duration                                 : 1h 46mn
    Bit rate                                 : 1 450 Kbps
    Width                                    : 720 pixels
    Height                                   : 384 pixels
    Display aspect ratio                     : 1.875
    Frame rate                               : 24.000 fps
    Color space                              : YUV
    Chroma subsampling                       : 4:2:0
    Bit depth                                : 8 bits
    Scan type                                : Progressive
    Compression mode                         : Lossy
    Bits/(Pixel*Frame)                       : 0.218
    Stream size                              : 1.08 GiB (79%)
    Writing library                          : XviD 1.2.1 (UTC 2008-12-04)

    Audio
    ID                                       : 1
    Format                                   : AC-3
    Format/Info                              : Audio Coding 3
    Mode extension                           : CM (complete main)
    Codec ID                                 : 2000
    Duration                                 : 1h 46mn
    Bit rate mode                            : Constant
    Bit rate                                 : 384 Kbps
    Channel(s)                               : 6 channels
    Channel positions                        : Front: L C R, Side: L R, LFE
    Sampling rate                            : 48.0 KHz
    Bit depth                                : 16 bits
    Compression mode                         : Lossy
    Stream size                              : 292 MiB (21%)
    Alignment                                : Split accross interleaves
    Interleave, duration                     : 42 ms (1.00 video frame)
    Interleave, preload duration             : 500 ms

    Скриншоты:

    Каталог Новинок (Фильмы-трейлеры, Игры, Сериалы, Мультфильмы)

    © Оформление by Raven
    pb.wtf



  • Скачать Мой Аттила Марсель через торрент http://i67.fastpic.ru/big/2014/0717/c3/5a25ee8cd66acfb48349c5413806e1c3.jpg Скачать фильм Мой Аттила Марсель через торрент бесплантно в хорошем качестве Описание:Полю тридцать лет, он живет в парижской квартире со своими тетями, двумя пожилыми аристократками, которые воспитывали его с двух ... 9.8 10 23
    Торрент: Зарегистрирован [2014-07-21 07:49] · скачан: 527 раз
    Статус: √ проверено
    Размер: 1.37 GB
    Как cкачать? Как скачать Мой Аттила Марсель через торрент | UTorrent

    % Раздел Тема Автор DL S | L
    Видео для КПК и Смартфонов [ 839 MB ] Мой Аттила Марсель / Attila Marcel [2013 HDRip ] кэп Скачать
    1 | 0

    28-11-2019 20:33  

    Отключить всю рекламу на сайте

    17-07-2014 09:12 Мой Аттила Марсель Скачать торрент  

    по описанию больше на драму похоже а не комедию.Кто смотрел отпишите как фильмpb.wtf



    21-07-2014 17:26 Мой Аттила Марсель Скачать торрент  

    Вот к чему приводит женское воспитание.


    pb.wtf





    Последний раз редактировалось: I/O (2014-10-18 15:00), всего редактировалось 2 раз(а)

    23-07-2014 19:07 Мой Аттила Марсель Скачать торрент  

    Занудный фильм ни о чёмpb.wtf



      Дорогой пользователь! Огромная просьба, поблагодарите релизера, оцените раздачу и оставьте свои комментарий, если Вы скачали Мой Аттила Марсель через торрент бесплатно! Внесите свою лепту в развитие PiratBit!
      Комментировать посты могут только пользователи прошедшие не сложную регистрацию
      Показать сообщения:    

      Мой Аттила Марсель через торрент
      Скачать бесплатно Мой Аттила Марсель
      Мой Аттила Марсель скачать торрент
      Мой Аттила Марсель смотреть онлайн
      Cкачать фильм Мой Аттила Марсель бесплатно
      Мой Аттила Марсель скачать торрент в хорошем качестве
      Мой Аттила Марсель смотреть онлайн бесплатно в хорошем качестве


      Вы не можете начинать темы
      Вы не можете отвечать на сообщения
      Вы не можете редактировать свои сообщения
      Вы не можете удалять свои сообщения
      Вы не можете голосовать в опросах
      Вы не можете прикреплять файлы к сообщениям
      Вы можете скачивать файлы