Всегда рабочее зеркало без VPN и Proxy просто перед .vidak.icu напиши любое слово или цифру, Пример http://xp2l.vidak.icu

MVO

MVO

1 сезон

1

1 сезон

iTunes

1 сезон

13

1 сезон

Deluxe

pack

Рекомендуем

Repack

30

ВАЖНО

RePack

MK11

RePack

jed

RePack

fifa19

RePack

RDR2

RePack

NEED FOR SPEED™ PAYBACK

Кинопоиск HD

6 сезон

 Острые козырьки 6 сезон

Все сериалы

все сериалы на PB.wtf

RePack

FAR CRY 5
  
Magnet ссылка

Гараж (Эльдар Рязанов) [1979 г., Комедия, HDTV 1080p, Оригинал] pb.wtf

Гараж через торрент pb.wtf

Размер: 5.21 GB | Добавлен: 8 лет назад | Торрент скачан:66 раз
Смотреть онлайн Гараж | Скачать    Ребята, помогите собрать деньги на оплату серверов!!!

21-07-2014 13:28 Гараж Скачать торрент  

Гараж
Год выпуска: 1979
Страна: СССР
Жанр: Комедия
Продолжительность: 01:35:30
Перевод: Оригинал
Субтитры: нет

Режиссер: Эльдар Рязанов

В ролях: Лия Ахеджакова, Ия Саввина, Светлана Немоляева, Валентин Гафт, Георгий Бурков, Вячеслав Невинный, Андрей Мягков, Леонид Марков, Игорь Костолевский, Анастасия Вознесенская, Ольга Остроумова, Глеб Стриженов, Борислав Брондуков, Семён Фарада, Наталья Гурзо, Алла Будницкая, Мария Виноградова, Эльдар Рязанов, Людмила Цветкова, Вадим Захарченко, Михаил Кокшенов, Татьяна Рогозина, Анатолий Ведёнкин, Пётр Щербаков, Зоя Исаева, Наталья Санько, Дмитрий Орловский, Александр Пятков, Вячеслав Войнаровский, Александр Лебедев, Владимир Мышкин, Анна Фроловцева

Описание: Типичная история для 70-80 годов, когда коллектив собирался для того, чтобы решить важнейший вопрос по справедливости: кому дать право на ту или иную собственность... Действие фильма развивается в течение одной ночи в зоологическом музее научно-исследовательского института, где собрались члены гаражного кооператива решить проблему сокращения списка пайщиков...

Качество: HDTV 1080p
Формат: MKV
Видео кодек: H.264
Аудио кодек: МР2
Видео: MPEG-4 AVC, (1920x1080),7226 Кбит/с, 23.976 кадра/сек
Аудио#1: МР2- 2 ch,192 kbps (Rus) 48.0 KHz Оригинал
скриншот   скриншот   скриншот  

Тип потока: Видео
Длительность: 01:35:30
Кодек: AVC
Кодек/описание: Advanced Video Codec
Кодек/профиль: [email protected]
Кодек/ID: 27
Кодек/CABAC: Yes
Кодек/ReFrames: 3 frames
Размеры изображения: 1920 x 1080 (16:9)
Частота кадров: 25.000 fps
Размер потока: 4.82 GiB (93%)
Битрейт: 7 226 Kbps
Битрейт/макс: 40.0 Mbps
Битрейт/тип: VBR
Стандарт: Component
Цветовое пространство: YUV
Тип развёртки: Interlaced
Колориметрия: 4:2:0
Глубина: 8 bits
:
Тип потока: Звук #1
Язык: Russian
Длительность: 01:35:30.576
Кодек: MPEG Audio
Кодек/профиль: Layer 2
Кодек/ID: 4
Частота дискретизации: 48.0 KHz
Каналов: 2 channels
Битрейт: 192 Kbps
Битрейт/тип: Constant
Размер потока: 131 MiB (2%)
Метод сжатия: Lossy

pb.wtf



Скачать Гараж через торрент https://pic1.kartinco.top/images/61/v5lxb.jpg Скачать, смотреть онлайн Гараж бесплантно в хорошем качестве Описание: Типичная история для 70-80 годов, когда коллектив собирался для того, чтобы решить важнейший вопрос по справедливости: кому дать ... 10 10 12
Info! Золотая раздача, скачанное не засчитывается.
Торрент: Зарегистрирован [2014-07-21 13:28] · скачан: 66 раз
Статус: √ проверено
Размер: 5.21 GB
Как cкачать? Как скачать Гараж через торрент | UTorrent

% Раздел Тема Автор DL S | L
Фильмы [HD 720p, 1080p] (Хороший звук DUB, MVO) [ 9.15 GB ] Лок / Locke [2013 BDRip 1080p MVO / Baibako / Гараж + VO [R.A.I.M] от R.G. HD-Films Ворон Скачать
1 | 0
Наши сериалы [ 1.29 GB ] Гаражный папа / Серии: 1-2 из 2 [2018 SATRip] bober100 Скачать
1 | 0
Наши сериалы [ 1.09 GB ] Гаражный папа / Серии: 1-2 из 2 [2018 WEBRip] bober100 Скачать
1 | 0
Наши сериалы [ 4.18 GB ] Гаражный папа / Серии: 1-2 из 2 [2018 WEB-DL 1080p] bober100 Скачать
1 | 0
Документальные фильмы и телепередачи [ 510 MB ] Улика из прошлого. Фальшивомонетчик №1: гений из гаража [2018 Документальный SATRip] Armstrong Скачать
1 | 0
T Фильмы (мультфильмы) cо спонсором показа (Новинки AVI/MKV) [ 2.96 GB ] Загадочная гаражная распродажа. Убийства ящика Пандоры / Garage Sale Mystery: Pandora's Box [2018 HDTVRip 720p] MVO ["Синема УС"] bober100 Скачать
1 | 0
T Фильмы (мультфильмы) cо спонсором показа (Новинки AVI/MKV) [ 1.37 GB ] Загадочная гаражная распродажа. Убийства ящика Пандоры / Garage Sale Mystery: Pandora's Box [2018 HDTVRip] MVO ["Синема УС"] bober100 Скачать
1 | 0

28-11-2019 20:33  

Отключить вcю реклaмy на сайте

    Дорогой пользователь! Огромная просьба, поблагодарите релизера, оцените раздачу и оставьте свои комментарий, если Вы скачали Гараж через торрент бесплатно!
    Комментировать посты могут только пользователи прошедшие не сложную регистрацию
    Показать сообщения:    

    Гараж через торрент
    Скачать бесплатно Гараж
    Гараж скачать торрент
    Гараж смотреть онлайн
    Cкачать фильм Гараж бесплатно
    Гараж скачать торрент в хорошем качестве
    Гараж смотреть онлайн бесплатно в хорошем качестве


    Вы не можете начинать темы
    Вы не можете отвечать на сообщения
    Вы не можете редактировать свои сообщения
    Вы не можете удалять свои сообщения
    Вы не можете голосовать в опросах
    Вы не можете прикреплять файлы к сообщениям
    Вы можете скачивать файлы