Ссылка на приватное зеркало нашего сайта всего за 1$. Внимание количество ограничено!!!

2 сезон

iTunes

1 сезон

1

iTunes

iTunes

iTunes

1 сезон

RePack

30

ИГРА 18+

pack

ВАЖНО

!!Акция!!

Alien_RageХит недели

RePack

MK11
pack

Забери бонус

RePack

jed

!!Акция!!

Alien_Rage

RePack

fifa19

RePack

Assassins Creed: Odyssey

RePack

NEED FOR SPEED™ PAYBACK

4 сезон

9 сезон

Бесстыжие 9 сезон

Все сериалы

все сериалы на PB.wtf

RePack

FAR CRY 5
  

Саботаж / Sabotage (Дэвид Эйр / David Ayer) [2014, боевик, триллер, драма, BDRip 1080p, Дублированный, iTunes] от R.G. HD-Films pb.wtf

Саботаж через торрент pb.wtf

Размер: 10.16 GB | Добавлен: 6 лет 2 мес. назад | Торрент скачан:775 раз
Скачать  

21-07-2014 20:31 Саботаж Скачать торрент  

Саботаж / Sabotage
«Неудержимые снова в деле»



Год выпуска: 2014
Страна: США
Жанр: боевик, триллер, драма, криминал
Продолжительность: 01:49:40
Перевод: Дублированный [iTunes]
Субтитры: Русские, Английские



Режиссер:
  • Дэвид Эйр / David Ayer
В ролях:
  • Арнольд Шварценеггер, Сэм Уортингтон, Оливия Уильямс, Терренс Ховард, Джо Манганьелло, Джош Холлоуэй, Мирей Инос, Мартин Донован, Макс Мартини, Кевин Вэнс, Марк Шлегель, Нед Юсеф

Описание: История начинается с операции элитного подразделения из управления по борьбе с наркотиками, нагрянувшего на явочную квартиру наркокартеля. Команда решает скрыть от начальства, что в результате налёта они обогатились на миллионы долларов, но вскоре хранить тайну становится всё сложнее: кто-то по одному убирает всех участвовавших в операции.



Качество: BDRip 1080p
Формат: MKV
Видео кодек: AVC
Аудио кодек: AC3 / DTS
Видео: 1920x1040 (16:9), 23,976 fps, 9860 kbps, 0,206 bpp
Аудио №1: AC3, 48 kHz, 5.1 ch, 384 kbps (Дублированный)
Аудио №2: DTS, 48 kHz, 5.1 ch, 1510 kbps (Д.Есарев)
Аудио №3: DTS, 48 kHz, 5.1 ch, 1510 kbps


Код:

General
Unique ID                                : 254175077277786450423333975296616174212 (0xBF3856D8BC508AC4AF606E18CC0C1284)
Complete name                            : E:\Саботаж (2014) 1080p.mkv
Format                                   : Matroska
Format version                           : Version 4 / Version 2
File size                                : 10.2 GiB
Duration                                 : 1h 49mn
Overall bit rate                         : 13.3 Mbps
Movie name                               : Саботаж
Encoded date                             : UTC 2014-07-21 20:19:20
Writing application                      : mkvmerge v6.9.1 ('Blue Panther') 64bit built on Apr 18 2014 18:23:38
Writing library                          : libebml v1.3.0 + libmatroska v1.4.1
Attachment                               : Yes

Video
ID                                       : 1
Format                                   : AVC
Format/Info                              : Advanced Video Codec
Format profile                           : High@L4.1
Format settings, CABAC                   : Yes
Format settings, ReFrames                : 4 frames
Codec ID                                 : V_MPEG4/ISO/AVC
Duration                                 : 1h 49mn
Bit rate                                 : 9 860 Kbps
Width                                    : 1 920 pixels
Height                                   : 1 040 pixels
Display aspect ratio                     : 16:9
Frame rate                               : 23.976 fps
Color space                              : YUV
Chroma subsampling                       : 4:2:0
Bit depth                                : 8 bits
Scan type                                : Progressive
Bits/(Pixel*Frame)                       : 0.206
Stream size                              : 7.35 GiB (72%)
Writing library                          : x264 core 138 r2356 a1d3d17
Encoding settings                        : cabac=1 / ref=4 / deblock=1:-3:-3 / analyse=0x3:0x113 / me=umh / subme=10 / psy=1 / psy_rd=1.00:0.05 / mixed_ref=1 / me_range=32 / chroma_me=1 / trellis=2 / 8x8dct=1 / cqm=0 / deadzone=21,11 / fast_pskip=0 / chroma_qp_offset=-2 / threads=18 / lookahead_threads=1 / sliced_threads=0 / nr=0 / decimate=1 / interlaced=0 / bluray_compat=0 / constrained_intra=0 / bframes=4 / b_pyramid=2 / b_adapt=2 / b_bias=0 / direct=3 / weightb=1 / open_gop=0 / weightp=2 / keyint=250 / keyint_min=23 / scenecut=40 / intra_refresh=0 / rc=2pass / mbtree=0 / bitrate=9860 / ratetol=1.0 / qcomp=0.70 / qpmin=0 / qpmax=69 / qpstep=4 / cplxblur=20.0 / qblur=0.5 / ip_ratio=1.40 / pb_ratio=1.30 / aq=2:1.00
Language                                 : English
Default                                  : Yes
Forced                                   : No

Audio #1
ID                                       : 2
Format                                   : AC-3
Format/Info                              : Audio Coding 3
Mode extension                           : CM (complete main)
Codec ID                                 : A_AC3
Duration                                 : 1h 49mn
Bit rate mode                            : Constant
Bit rate                                 : 384 Kbps
Channel(s)                               : 6 channels
Channel positions                        : Front: L C R, Side: L R, LFE
Sampling rate                            : 48.0 KHz
Bit depth                                : 16 bits
Compression mode                         : Lossy
Stream size                              : 301 MiB (3%)
Title                                    : Дублированный, iTunes
Language                                 : Russian
Default                                  : Yes
Forced                                   : No

Audio #2
ID                                       : 3
Format                                   : DTS
Format/Info                              : Digital Theater Systems
Codec ID                                 : A_DTS
Duration                                 : 1h 49mn
Bit rate mode                            : Constant
Bit rate                                 : 1 510 Kbps
Channel(s)                               : 6 channels
Channel positions                        : Front: L C R, Side: L R, LFE
Sampling rate                            : 48.0 KHz
Bit depth                                : 24 bits
Compression mode                         : Lossy
Stream size                              : 1.16 GiB (11%)
Title                                    : Авторский, Д.Есарев
Language                                 : Russian
Default                                  : No
Forced                                   : No

Audio #3
ID                                       : 4
Format                                   : DTS
Format/Info                              : Digital Theater Systems
Codec ID                                 : A_DTS
Duration                                 : 1h 49mn
Bit rate mode                            : Constant
Bit rate                                 : 1 510 Kbps
Channel(s)                               : 6 channels
Channel positions                        : Front: L C R, Side: L R, LFE
Sampling rate                            : 48.0 KHz
Bit depth                                : 24 bits
Compression mode                         : Lossy
Stream size                              : 1.16 GiB (11%)
Title                                    : Оригинал
Language                                 : English
Default                                  : No
Forced                                   : No

Text #1
ID                                       : 5
Format                                   : UTF-8
Codec ID                                 : S_TEXT/UTF8
Codec ID/Info                            : UTF-8 Plain Text
Title                                    : Full (notabenoid, ненормативная лексика)
Language                                 : Russian
Default                                  : No
Forced                                   : No

Text #2
ID                                       : 6
Format                                   : UTF-8
Codec ID                                 : S_TEXT/UTF8
Codec ID/Info                            : UTF-8 Plain Text
Title                                    : Full
Language                                 : English
Default                                  : No
Forced                                   : No

Text #3
ID                                       : 7
Format                                   : UTF-8
Codec ID                                 : S_TEXT/UTF8
Codec ID/Info                            : UTF-8 Plain Text
Title                                    : SDH
Language                                 : English
Default                                  : No
Forced                                   : No

Text #4
ID                                       : 8
Format                                   : UTF-8
Codec ID                                 : S_TEXT/UTF8
Codec ID/Info                            : UTF-8 Plain Text
Title                                    : SDH (colored)
Language                                 : English
Default                                  : No
Forced                                   : No

Menu
00:00:00.000                             : en:00:00:00.000
00:09:58.556                             : en:00:09:58.556
00:13:13.126                             : en:00:13:13.126
00:19:44.308                             : en:00:19:44.308
00:25:16.932                             : en:00:25:16.932
00:30:09.599                             : en:00:30:09.599
00:34:21.977                             : en:00:34:21.977
00:37:33.376                             : en:00:37:33.376
00:43:00.745                             : en:00:43:00.745
00:48:32.118                             : en:00:48:32.118
00:53:13.107                             : en:00:53:13.107
00:57:38.622                             : en:00:57:38.622
01:03:43.778                             : en:01:03:43.778
01:07:59.450                             : en:01:07:59.450
01:14:38.557                             : en:01:14:38.557
01:18:42.551                             : en:01:18:42.551
01:22:41.165                             : en:01:22:41.165
01:28:49.491                             : en:01:28:49.491
01:35:39.317                             : en:01:35:39.317
01:42:47.828                             : en:01:42:47.828

Бюджет фильма: $35 000 000
Премьера (мир): 19 марта 2014
Премьера (РФ): 17 апреля 2014,
«Централ Партнершип»

Релиз на Blu-Ray: 29 июля 2014,
«Lizard Cinema Trade»,
...

Релиз на DVD: 29 июля 2014,
«Lizard Cinema Trade»,
...






pb.wtf



Скачать Саботаж через торрент http://pic.kartinco.top/new/img/2014-08/09/pw0y4fuou7jh4gu9zn506ghpw.png Скачать фильм Саботаж через торрент бесплантно в хорошем качестве Описание: История начинается с операции элитного подразделения из управления по борьбе с наркотиками, нагрянувшего на явочную квартиру ... 10 10 19
Info! Золотая раздача, скачанное не засчитывается.
Торрент: Зарегистрирован [2014-07-21 20:31] · скачан: 775 раз
Статус: √ проверено
Размер: 10.16 GB
Как cкачать? Как скачать Саботаж через торрент | qTorrent

% Раздел Тема Автор DL S | L
Фильмы 2014 [DVDrip, WEB-DLRip, HDrip] [ 1.41 GB ] Саботаж / Sabotage [2014 HDRip-AVC От R.G. PiratFilms White Smoke Скачать
1 | 0


Последний раз редактировалось: Seedtank (2014-08-09 16:53), всего редактировалось 4 раз(а)

28-11-2019 20:33  

Отключить всю рекламу на сайте

21-07-2014 21:01 Саботаж Скачать торрент  

Релиз подготовлен специально для piratbit.cc
Вшита обложка.
pb.wtf



    Дорогой пользователь! Огромная просьба, поблагодарите релизера, оцените раздачу и оставьте свои комментарий, если Вы скачали Саботаж через торрент бесплатно! Внесите свою лепту в развитие PiratBit!
    Комментировать посты могут только пользователи прошедшие не сложную регистрацию
    Показать сообщения:    

    Саботаж через торрент
    Скачать бесплатно Саботаж
    Саботаж скачать торрент
    Саботаж смотреть онлайн
    Cкачать фильм Саботаж бесплатно
    Саботаж скачать торрент в хорошем качестве
    Саботаж смотреть онлайн бесплатно в хорошем качестве


    Вы не можете начинать темы
    Вы не можете отвечать на сообщения
    Вы не можете редактировать свои сообщения
    Вы не можете удалять свои сообщения
    Вы не можете голосовать в опросах
    Вы не можете прикреплять файлы к сообщениям
    Вы можете скачивать файлы