Доктор Стрэндж

Лицензия

Добыча

Дубляж

Дом дракона

1 сезон

Тор

Дубляж

В эфире

Дубляж

Там, где раки поют

MVO

Властелин колец

1 сезон

GLOBAL

pack

Рекомендуем

30

Пиратка

ВАЖНО

ВАЖНО

Ghostwire

Пиратка

jed

RePack

nioh2

RePack

RDR2

RePack

NEED FOR SPEED™ PAYBACK

RePack

скачать торрент

Кинопоиск HD

Острые козырьки 6 сезон

6 сезон

FAR CRY 6

RePack

скачать торрент

Лицензия

скачать торрент

MVO

1

1 сезон

скачать торрент

1 сезон

скачать торрент

Лицензия

  

300 спартанцев: Расцвет империи / 300: Rise of an Empire (Ноам Мурро / Noam Murro) [2013, фэнтези, боевик, драма, BDRip 1080p, Дублированный, Лицензия] от R.G. HD-Films

300 спартанцев: Расцвет империи через торрент pb.wtf

Размер: 13.42 GB | Добавлен: 8 лет 4 мес. назад | Торрент скачан:238 раз
Смотреть онлайн | Скачать   

21-07-2014 21:11 300 спартанцев: Расцвет империи Скачать торрент  

300 спартанцев: Расцвет империи / 300: Rise of an Empire
«Смерти вопреки»



Год выпуска: 2013
Страна: США
Жанр: фэнтези, боевик, драма, военный
Продолжительность: 01:42:36
Перевод: Дублированный [Лицензия]
Субтитры: Русские (Full), Английские (Full, SDH)



Режиссер:
  • Ноам Мурро / Noam Murro
В ролях:
  • Салливан Степлтон, Ева Грин, Джек О’Коннелл, Каллэн Мулвей, Ганс Мэтисон, Родриго Санторо, Лина Хиди, Дэвид Уэнэм, Эндрю Тирнан, Эндрю Плевин, Игал Наор, Питер Менса

Описание: После победы над царем Леонидом персидская армия во главе с Ксерксом движется на юг. На её пути оказывается флот Афин под руководством адмирала Фемистокла. Силы противников не равны, и Фемистокл вынужден вступить в союз с заклятым врагом афинского государства Спартой. Только объединившись у враждующих полисов-государств есть шанс что-то противопоставить могущественному Ксерксу.



Качество: BDRip 1080p
Формат: MKV
Видео кодек: AVC
Аудио кодек: AC3 / DTS
Видео: 1920x800 (2.40:1), 23,976 fps, 14876 kbps, 0,404 bpp
Аудио №1: русский, AC3, 48 kHz, 5.1 ch, 448 kbps (Дублированный)
Аудио №2: русский, DTS, 48 kHz, 5.1 ch, 1510 kbps (Д.Есарев)
Аудио №3: английский, DTS, 48 kHz, 5.1 ch, 1510 kbps


Код:

General
Unique ID                                : 241761503973994736729658999962676237501 (0xB5E1926DF5D6336987080BA7DC1414BD)
Complete name                            : E:\300 спартанцев. Расцвет империи (2014) 1080p.mkv
Format                                   : Matroska
Format version                           : Version 4 / Version 2
File size                                : 13.4 GiB
Duration                                 : 1h 42mn
Overall bit rate                         : 18.7 Mbps
Movie name                               : 300 спартанцев: Расцвет империи
Encoded date                             : UTC 2014-07-19 13:07:00
Writing application                      : mkvmerge v6.9.1 ('Blue Panther') 64bit built on Apr 18 2014 18:23:38
Writing library                          : libebml v1.3.0 + libmatroska v1.4.1
Attachment                               : Yes

Video
ID                                       : 1
Format                                   : AVC
Format/Info                              : Advanced Video Codec
Format profile                           : [email protected]
Format settings, CABAC                   : Yes
Format settings, ReFrames                : 5 frames
Codec ID                                 : V_MPEG4/ISO/AVC
Duration                                 : 1h 42mn
Bit rate                                 : 14.9 Mbps
Width                                    : 1 920 pixels
Height                                   : 800 pixels
Display aspect ratio                     : 2.40:1
Frame rate                               : 23.976 fps
Color space                              : YUV
Chroma subsampling                       : 4:2:0
Bit depth                                : 8 bits
Scan type                                : Progressive
Bits/(Pixel*Frame)                       : 0.404
Stream size                              : 10.7 GiB (79%)
Title                                    : SbR
Writing library                          : x264 core 142 r2431+42 c69a006 tMod [[email protected]:2:0 X86_64]
Encoding settings                        : cabac=1 / ref=5 / deblock=1:-2:-2 / analyse=0x3:0x133 / me=umh / subme=11 / psy=1 / fade_compensate=0.00 / psy_rd=1.00:0.00 / mixed_ref=1 / me_range=32 / chroma_me=1 / trellis=2 / 8x8dct=1 / cqm=0 / deadzone=21,11 / fast_pskip=1 / chroma_qp_offset=-2 / threads=12 / lookahead_threads=3 / sliced_threads=0 / nr=0 / decimate=1 / interlaced=0 / bluray_compat=0 / constrained_intra=0 / fgo=0 / bframes=11 / b_pyramid=2 / b_adapt=2 / b_bias=0 / direct=1 / weightb=1 / open_gop=0 / weightp=2 / keyint=250 / keyint_min=23 / scenecut=40 / intra_refresh=0 / rc_lookahead=120 / rc=crf / mbtree=1 / crf=19.2000 / qcomp=0.80 / qpmin=0:0:0 / qpmax=69:69:69 / qpstep=4 / vbv_maxrate=62500 / vbv_bufsize=78125 / crf_max=0.0 / nal_hrd=none / filler=0 / ip_ratio=1.40 / aq=4:0.80 / aq-sensitivity=11.00 / aq-factor=1.00:1.00:1.00 / aq2=1:0.60 / aq2-sensitivity=9.00 / aq2-factor=1.00:1.00:1.00 / aq3=1:[0.60:0.60]:[0.60:0.60]:[0.60:0.60]:[0.60:0.60] / aq3-sensitivity=10.00 / aq3-factor=[1.00:1.00]:[1.00:1.00]:[1.00:1.00] / aq3-boundary=192:64:24
Language                                 : English
Default                                  : Yes
Forced                                   : No
Color primaries                          : BT.709-5, BT.1361, IEC 61966-2-4, SMPTE RP177
Transfer characteristics                 : BT.709-5, BT.1361
Matrix coefficients                      : BT.709-5, BT.1361, IEC 61966-2-4 709, SMPTE RP177

Audio #1
ID                                       : 2
Format                                   : AC-3
Format/Info                              : Audio Coding 3
Mode extension                           : CM (complete main)
Codec ID                                 : A_AC3
Duration                                 : 1h 42mn
Bit rate mode                            : Constant
Bit rate                                 : 448 Kbps
Channel(s)                               : 6 channels
Channel positions                        : Front: L C R, Side: L R, LFE
Sampling rate                            : 48.0 KHz
Bit depth                                : 16 bits
Compression mode                         : Lossy
Stream size                              : 329 MiB (2%)
Title                                    : Дублированный, Blu-ray CEE
Language                                 : Russian
Default                                  : Yes
Forced                                   : No

Audio #2
ID                                       : 3
Format                                   : DTS
Format/Info                              : Digital Theater Systems
Codec ID                                 : A_DTS
Duration                                 : 1h 42mn
Bit rate mode                            : Constant
Bit rate                                 : 1 510 Kbps
Channel(s)                               : 6 channels
Channel positions                        : Front: L C R, Side: L R, LFE
Sampling rate                            : 48.0 KHz
Bit depth                                : 24 bits
Compression mode                         : Lossy
Stream size                              : 1.08 GiB (8%)
Title                                    : Авторский, Д.Есарев
Language                                 : Russian
Default                                  : No
Forced                                   : No

Audio #3
ID                                       : 4
Format                                   : DTS
Format/Info                              : Digital Theater Systems
Codec ID                                 : A_DTS
Duration                                 : 1h 42mn
Bit rate mode                            : Constant
Bit rate                                 : 1 510 Kbps
Channel(s)                               : 6 channels
Channel positions                        : Front: L C R, Side: L R, LFE
Sampling rate                            : 48.0 KHz
Bit depth                                : 24 bits
Compression mode                         : Lossy
Delay relative to video                  : 11ms
Stream size                              : 1.08 GiB (8%)
Title                                    : Оригинал
Language                                 : English
Default                                  : No
Forced                                   : No

Text #1
ID                                       : 5
Format                                   : UTF-8
Codec ID                                 : S_TEXT/UTF8
Codec ID/Info                            : UTF-8 Plain Text
Title                                    : Full
Language                                 : Russian
Default                                  : No
Forced                                   : No

Text #2
ID                                       : 6
Format                                   : UTF-8
Codec ID                                 : S_TEXT/UTF8
Codec ID/Info                            : UTF-8 Plain Text
Title                                    : Full
Language                                 : English
Default                                  : No
Forced                                   : No

Text #3
ID                                       : 7
Format                                   : UTF-8
Codec ID                                 : S_TEXT/UTF8
Codec ID/Info                            : UTF-8 Plain Text
Title                                    : SDH
Language                                 : English
Default                                  : No
Forced                                   : No

Text #4
ID                                       : 8
Format                                   : UTF-8
Codec ID                                 : S_TEXT/UTF8
Codec ID/Info                            : UTF-8 Plain Text
Title                                    : SDH (colored)
Language                                 : English
Default                                  : No
Forced                                   : No

Menu
00:00:00.000                             : en:00:00:00.000
00:10:26.376                             : en:00:10:26.376
00:20:54.628                             : en:00:20:54.628
00:31:15.290                             : en:00:31:15.290
00:40:58.498                             : en:00:40:58.498
00:50:50.714                             : en:00:50:50.714
01:00:05.435                             : en:01:00:05.435
01:09:51.813                             : en:01:09:51.813
01:19:51.245                             : en:01:19:51.245
01:31:07.295                             : en:01:31:07.295
01:33:57.131                             : en:01:33:57.131

Бюджет фильма: $110 000 000
Премьера (мир): 5 марта 2014
Премьера (РФ): 6 марта 2014,
«Каро-Премьер»



3D

Релиз на Blu-Ray: 3 июля 2014,
«CP Дистрибуция»,
...

Релиз на DVD: 3 июля 2014,
«CP Дистрибуция»,
...









Скачать 300 спартанцев: Расцвет империи через торрент https://pic.kartinco.top/new/img/2014-08/09/fl3dlb7s9x2uezu143q6trqpg.png Скачать, смотреть онлайн 300 спартанцев: Расцвет империи бесплантно в хорошем качестве Описание: После победы над царем Леонидом персидская армия во главе с Ксерксом движется на юг. На её пути оказывается флот Афин под ... 10 10 17
Info! Золотая раздача, скачанное не засчитывается.
Торрент: Зарегистрирован [2014-07-21 21:11] · скачан: 238 раз
Статус: √ проверено
Размер: 13.42 GB
Как cкачать? Как скачать 300 спартанцев: Расцвет империи через торрент | UTorrent

% Раздел Тема Автор DL S | L
Фильмы 2014 [DVDrip, WEB-DLRip, HDrip] [ 1.46 GB ] 300 спартанцев: Расцвет империи / 300: Rise of an Empire | iTunes | DLRip, Дублированный, iTunes Seedtank Скачать
1 | 0
Фильмы 2014 [DVDrip, WEB-DLRip, HDrip] [ 1.46 GB ] 300 спартанцев: Расцвет империи / 300: Rise of an Empire | Лицензия | BDRip-AVC potroks Скачать
1 | 0
Фильмы (DVD фильмы) [ 5.76 GB ] 300 спартанцев: Расцвет империи / 300: Rise of an Empire | | 2014, фэнтези, боевик, драма, военный, DVD9 voovaz Скачать
1 | 0
Фильмы (HD 720p, 1080p) (48-60 fps) [ 4.44 GB ] 300 спартанцев: Расцвет империи / 300: Rise of an Empire | Дубляж | 720p,Профессиональный [Дубляж KEYS Скачать
1 | 0
Фильмы [HD 720p, 1080p] (Хороший звук DUB, MVO) [ 11.52 GB ] 300 спартанцев: Расцвет империи / 300: Rise of an Empire | Лицензия «Blu-Ray CEE» | 1080p, Дубляж - [Лицензия «Blu-Ray CEE» Ворон Скачать
1 | 0
Фильмы [HD 720p, 1080p] (Хороший звук DUB, MVO) [ 5.7 GB ] 300 спартанцев: Расцвет империи / 300: Rise of an Empire | Лицензия «Blu-Ray CEE» | 720p, Дубляж -[Лицензия «Blu-Ray CEE» Ворон Скачать
1 | 0
Фильмы 2014 [DVDrip, WEB-DLRip, HDrip] [ 2.19 GB ] 300 спартанцев: Расцвет империи / 300: Rise of an Empire | Лицензия «Blu-Ray CEE» | BDRip, Дубляж - [Лицензия «Blu-Ray CEE» Ворон Скачать
1 | 0



Последний раз редактировалось: Seedtank (2014-08-09 16:51), всего редактировалось 3 раз(а)

28-11-2019 20:33  


Отключить вcю реклaмy на сайте, в т.ч. и в плеере онлайн просмотра!

21-07-2014 21:17 300 спартанцев: Расцвет империи Скачать торрент  

Релиз подготовлен специально для piratbit.cc
Вшита обложка.



    Дорогой пользователь! Огромная просьба, поблагодарите релизера, оцените раздачу и оставьте свои комментарий, если Вы скачали 300 спартанцев: Расцвет империи через торрент бесплатно!!
    Комментировать посты могут только пользователи прошедшие не сложную регистрацию
    Показать сообщения:    


    300 спартанцев: Расцвет империи через торрент
    Скачать бесплатно 300 спартанцев: Расцвет империи
    300 спартанцев: Расцвет империи скачать торрент
    300 спартанцев: Расцвет империи смотреть онлайн
    Cкачать фильм 300 спартанцев: Расцвет империи бесплатно
    300 спартанцев: Расцвет империи скачать торрент в хорошем качестве
    300 спартанцев: Расцвет империи смотреть онлайн бесплатно в хорошем качестве
    Вы не можете начинать темы
    Вы не можете отвечать на сообщения
    Вы не можете редактировать свои сообщения
    Вы не можете удалять свои сообщения
    Вы не можете голосовать в опросах
    Вы не можете прикреплять файлы к сообщениям
    Вы можете скачивать файлы
    300 спартанцев: Расцвет империи / 300: Rise of an Empire [2013, фэнтези, боевик, драма, BDRip 1080p, Дублированный, Лицензия] от R.G. HD-Films смотреть онлайн, скачать торрент picoco.icu