Ссылка на приватное зеркало нашего сайта всего за 1$. Внимание количество ограничено!!!

2 сезон

iTunes

1 сезон

1

iTunes

iTunes

iTunes

1 сезон

RePack

30

ИГРА 18+

pack

ВАЖНО

!!Акция!!

Alien_RageХит недели

RePack

MK11
pack

Забери бонус

RePack

jed

!!Акция!!

Alien_Rage

RePack

fifa19

RePack

Assassins Creed: Odyssey

RePack

NEED FOR SPEED™ PAYBACK

4 сезон

9 сезон

Бесстыжие 9 сезон

Все сериалы

все сериалы на PB.wtf

RePack

FAR CRY 5
  

Секс-пленка / sxtape (Бернард Роуз / Bernard Rose) [2013, США, ужасы, HDRip,Любительский (одноголосый) [PashaUP] pb.wtf

Секс-пленка через торрент pb.wtf

Размер: 1.37 GB | Добавлен: 6 лет 3 мес. назад | Торрент скачан:366 раз
Скачать  

22-07-2014 12:32 Секс-пленка Скачать торрент  


Секс-пленка / sxtape


Год выпуска:2013
Страна:США
Жанр:ужасы
Продолжительность:01:24:14
Перевод:Любительский (одноголосый) [PashaUP]
Субтитры: Нет
Режиссер:Бернард Роуз / Bernard Rose
В ролях:

Кекир Фоли (Jill), Джули Ариелла Маркус (Colette McLeod), Крис Кой (Bobby), Йен Дункан (Adam), Даниэль Фаральдо (Doctor), Диана Гарсиа, Эрик Нил Гутьеррес (Detective)
  • Описание:
    Адам и Джилл, в надежде оживить свои отношения, решают снять интимное видео в старом заброшенном особняке. Внезапно становится очевидным тот факт, что они вовсе не одиноки в этой новой зловещей среде. И вскоре пара понимает, что некоторые секс ленты вообще не стоит снимать, поскольку их странная затея молниеносно превращается в отчаянную борьбу за выживание...


    Качество:HDRip
    Формат:AVI
    Видео кодек: XviD
    Аудио кодек:AC3
    Видео: XviD, 720x400 (16:9), 1926 kbps, 24 fps, 0,279 bpp
    Аудио №1: AC3 / 2.0 / 48 kHz / 192 kbps / 16 bit-Russian
    Аудио №2: AC3 / 2.0 / 48 kHz / 192 kbps / 16 bit-English

    Код:

    General
    Complete name                            : D:\Торенты\Sxtape.2013.L1.HDRip.1400MB.avi
    Format                                   : AVI
    Format/Info                              : Audio Video Interleave
    File size                                : 1.37 GiB
    Duration                                 : 1h 24mn
    Overall bit rate                         : 2 324 Kbps
    Writing application                      : VirtualDubMod 1.5.10.3 | www.virtualdub-fr.org || (build 2550/release)
    Writing library                          : VirtualDubMod build 2550/release

    Video
    ID                                       : 0
    Format                                   : MPEG-4 Visual
    Format profile                           : Advanced Simple@L5
    Format settings, BVOP                    : 1
    Format settings, QPel                    : No
    Format settings, GMC                     : No warppoints
    Format settings, Matrix                  : Custom
    Codec ID                                 : XVID
    Codec ID/Hint                            : XviD
    Duration                                 : 1h 24mn
    Bit rate                                 : 1 926 Kbps
    Width                                    : 720 pixels
    Height                                   : 400 pixels
    Display aspect ratio                     : 16:9
    Frame rate                               : 24.000 fps
    Color space                              : YUV
    Chroma subsampling                       : 4:2:0
    Bit depth                                : 8 bits
    Scan type                                : Progressive
    Compression mode                         : Lossy
    Bits/(Pixel*Frame)                       : 0.279
    Stream size                              : 1.13 GiB (83%)
    Writing library                          : XviD 73

    Audio #1
    ID                                       : 1
    Format                                   : AC-3
    Format/Info                              : Audio Coding 3
    Mode extension                           : CM (complete main)
    Codec ID                                 : 2000
    Duration                                 : 1h 24mn
    Bit rate mode                            : Constant
    Bit rate                                 : 192 Kbps
    Channel(s)                               : 2 channels
    Channel positions                        : Front: L R
    Sampling rate                            : 48.0 KHz
    Bit depth                                : 16 bits
    Compression mode                         : Lossy
    Stream size                              : 116 MiB (8%)
    Alignment                                : Split accross interleaves
    Interleave, duration                     : 42 ms (1.00 video frame)
    Interleave, preload duration             : 500 ms

    Audio #2
    ID                                       : 2
    Format                                   : AC-3
    Format/Info                              : Audio Coding 3
    Mode extension                           : CM (complete main)
    Codec ID                                 : 2000
    Duration                                 : 1h 24mn
    Bit rate mode                            : Constant
    Bit rate                                 : 192 Kbps
    Channel(s)                               : 2 channels
    Channel positions                        : Front: L R
    Sampling rate                            : 48.0 KHz
    Bit depth                                : 16 bits
    Compression mode                         : Lossy
    Stream size                              : 116 MiB (8%)
    Alignment                                : Split accross interleaves
    Interleave, duration                     : 42 ms (1.00 video frame)
    Interleave, preload duration             : 500 ms


    Скриншоты:

    Каталог Новинок (Фильмы-трейлеры, Игры, Сериалы, Мультфильмы)
    © Оформление by Raven
    pb.wtf



  • Скачать Секс-пленка через торрент http://pic.kartinco.top/images/6/ordi9.jpg Скачать фильм Секс-пленка через торрент бесплантно в хорошем качестве Описание:Адам и Джилл, в надежде оживить свои отношения, решают снять интимное видео в старом заброшенном особняке. Внезапно становится ... 8.8 10 19
    Торрент: Зарегистрирован [2014-07-22 12:32] · скачан: 366 раз
    Статус: √ проверено
    Размер: 1.37 GB
    Как cкачать? Как скачать Секс-пленка через торрент | qTorrent

    % Раздел Тема Автор DL S | L
    # Фильмы (мультфильмы) cо спонсором показа (Новинки AVI/MKV) [ 3.88 GB ] Секс-пленка / sxtape [2013 HDRip] DUB [BDRip 720p] bober100 Скачать
    1 | 0
    T Фильмы (мультфильмы) cо спонсором показа (Новинки AVI/MKV) [ 1.37 GB ] Секс-пленка / sxtape [2013 HDRip] DUB [Line] bober100 Скачать
    1 | 0

    28-11-2019 20:33  

    Отключить всю рекламу на сайте

    26-07-2014 19:37 Секс-пленка Скачать торрент  

    IMDB 2.7
    Я всем стараюсь постить, чьи раздачи с неизвестными фильмами смотрю, без обидpb.wtf



    08-10-2014 21:34 Секс-пленка Скачать торрент  

    Illague писал(а):

    IMDB 2.7
    Я всем стараюсь постить, чьи раздачи с неизвестными фильмами смотрю, без обид

    молодец только лучше сразу так

    pb.wtf



      Дорогой пользователь! Огромная просьба, поблагодарите релизера, оцените раздачу и оставьте свои комментарий, если Вы скачали Секс-пленка через торрент бесплатно! Внесите свою лепту в развитие PiratBit!
      Комментировать посты могут только пользователи прошедшие не сложную регистрацию
      Показать сообщения:    

      Секс-пленка через торрент
      Скачать бесплатно Секс-пленка
      Секс-пленка скачать торрент
      Секс-пленка смотреть онлайн
      Cкачать фильм Секс-пленка бесплатно
      Секс-пленка скачать торрент в хорошем качестве
      Секс-пленка смотреть онлайн бесплатно в хорошем качестве


      Вы не можете начинать темы
      Вы не можете отвечать на сообщения
      Вы не можете редактировать свои сообщения
      Вы не можете удалять свои сообщения
      Вы не можете голосовать в опросах
      Вы не можете прикреплять файлы к сообщениям
      Вы можете скачивать файлы