новый адрес
Мега распродажа FORZA HORIZON 4 ULTIMATE+ВСЕ DLC+ОНЛАЙН всего за 499р. 349 руб. (супер цена). Внимание количество ограничено!!!

iTunes

1+1

iTunes

мы

iTunes

1

iTunes

Чернобыль

iTunes

Ральф против интернета

Лицензия

ПШазам

Лицензия

Игра престолов

Лицензия

30
pack

ВАЖНО

!!Акция!!

Alien_RageХит недели

RePack

Resident Evil 21

ИГРА 18+

pack

RePack

Metro:Exodus

!!Акция!!

Alien_Rage

RePack

fifa19

RePack

Assassins Creed: Odyssey

RePack

NEED FOR SPEED™ PAYBACK

3 сезон

9 сезон

Бесстыжие 9 сезон

Все сериалы

все сериалы на PB.wtf

RePack

FAR CRY 5
Ребята, катастрофически не хватает 1900р. для оплаты серверов за Октябрь (всвязи с блокировками трафик упал в 3 раза), 1-2р., выручайте.
  

Гараж (Эльдар Рязанов) [1979 г., драма, комедия, HDTVRip] pb.wtf

Гараж через торрент pb.wtf

Размер: 1.46 GB | Добавлен: 5 лет 3 мес. назад | Торрент скачан:210 раз
Скачать  

22-07-2014 14:04 Гараж Скачать торрент  

Гараж
Год выпуска: 1979
Страна: СССР
Жанр: драма, комедия
Продолжительность: 01:35:30

Режиссер: Эльдар Рязанов
Продюссер: Лазарь Милькис
Сценарий: Эмиль Брагинский, Эльдар Рязанов

Премьера в мире: 10 марта 1980, ...



В ролях: Лия Ахеджакова, Ия Саввина, Светлана Немоляева, Валентин Гафт, Георгий Бурков, Вячеслав Невинный, Андрей Мягков, Леонид Марков, Игорь Костолевский, Анастасия Вознесенская, Ольга Остроумова, Глеб Стриженов, Борислав Брондуков, Семён Фарада, Наталья Гурзо, Алла Будницкая, Мария Виноградова, Эльдар Рязанов, Людмила Цветкова, Вадим Захарченко, Михаил Кокшенов, Татьяна Рогозина, Анатолий Ведёнкин, Пётр Щербаков, Зоя Исаева, Наталья Санько, Дмитрий Орловский, Александр Пятков, Вячеслав Войнаровский, Александр Лебедев, Владимир Мышкин, Анна Фроловцева

Описание: Типичная история для 70-80 годов, когда коллектив собирался для того, чтобы решить важнейший вопрос по справедливости: кому дать право на ту или иную собственность... Действие фильма развивается в течение одной ночи в зоологическом музее научно-исследовательского института, где собрались члены гаражного кооператива решить проблему сокращения списка пайщиков...

Качество: HDTVRip за исходник спасибо ГАЙК
Формат: AVI
Видео кодек: XviD
Аудио кодек: AC3
Видео: 720x400 (1.80:1), 25 fps, XviD build 73 ~1979 kbps avg, 0.28 bit/pixel
Аудио#1: 48 kHz, AC3 Dolby Digital, 2/0 (L,R) ch, ~192 kbps
Релиз от: Deadmauvlad
скриншот   скриншот   скриншот   скриншот   скриншот   скриншот   скриншот   скриншот   скриншот  

General
Complete name : C:\Users\Angrybits\Documents\Garagh.1979.HDTVRip.Deadmauvlad.avi
Format : AVI
Format/Info : Audio Video Interleave
File size : 1.46 GiB
Duration : 1h 35mn
Overall bit rate : 2 181 Kbps
Movie name : Garagh.1979.HDTVRip.Deadmauvlad
Director : Deadmauvlad
Genre : Комедия
Writing application : VirtualDubMod 1.5.10.3 | www.virtualdub-fr.org || (build 2550/release)
Original source form/Name : Фильм
Copyright : Goldenshara
Comment : Исх. HDTV 1080 ГАЙК

Video
ID : 0
Format : MPEG-4 Visual
Format profile : Advanced Simple@L5
Format settings, BVOP : 1
Format settings, QPel : Yes
Format settings, GMC : No warppoints
Format settings, Matrix : Custom
Codec ID : XVID
Codec ID/Hint : XviD
Duration : 1h 35mn
Bit rate : 1 980 Kbps
Width : 720 pixels
Height : 400 pixels
Display aspect ratio : 16:9
Frame rate : 25.000 fps
Color space : YUV
Chroma subsampling : 4:2:0
Bit depth : 8 bits
Scan type : Progressive
Compression mode : Lossy
Bits/(Pixel*Frame) : 0.275
Stream size : 1.32 GiB (91%)
Writing library : XviD 73

Audio
ID : 1
Format : AC-3
Format/Info : Audio Coding 3
Mode extension : CM (complete main)
Format settings, Endianness : Big
Codec ID : 2000
Duration : 1h 35mn
Bit rate mode : Constant
Bit rate : 192 Kbps
Channel(s) : 2 channels
Channel positions : Front: L R
Sampling rate : 48.0 KHz
Bit depth : 16 bits
Compression mode : Lossy
Stream size : 131 MiB (9%)
Alignment : Split accross interleaves
Interleave, duration : 40 ms (1.00 video frame)
Interleave, preload duration : 500 ms

pb.wtf
KMessa-fan писал(а):

Недокроп



Скачать Гараж через торрент http://pic.kartinco.top/images/6/v5lxb.jpg Скачать фильм Гараж через торрент бесплантно в хорошем качестве Описание: Типичная история для 70-80 годов, когда коллектив собирался для того, чтобы решить важнейший вопрос по справедливости: кому дать ... 9 10 5
Торрент: Зарегистрирован [2014-07-22 14:04] · скачан: 210 раз
Статус: # сомнительно
Размер: 1.46 GB
Как cкачать? Как скачать Гараж через торрент | qTorrent

% Раздел Тема Автор DL S | L
Наши сериалы [ 1.29 GB ] Гаражный папа / Серии: 1-2 из 2 [2018 SATRip] bober100 Скачать
1 | 0
Наши сериалы [ 1.09 GB ] Гаражный папа / Серии: 1-2 из 2 [2018 WEBRip] bober100 Скачать
1 | 0
Наши сериалы [ 4.18 GB ] Гаражный папа / Серии: 1-2 из 2 [2018 WEB-DL 1080p] bober100 Скачать
1 | 0
Документальные фильмы и телепередачи [ 510 MB ] Улика из прошлого. Фальшивомонетчик №1: гений из гаража [2018 Документальный SATRip] Armstrong Скачать
1 | 0
T Фильмы (мультфильмы) cо спонсором показа (Новинки AVI/MKV) [ 2.96 GB ] Загадочная гаражная распродажа. Убийства ящика Пандоры / Garage Sale Mystery: Pandora's Box [2018 HDTVRip 720p] MVO ["Синема УС"] bober100 Скачать
1 | 0
T Фильмы (мультфильмы) cо спонсором показа (Новинки AVI/MKV) [ 1.37 GB ] Загадочная гаражная распродажа. Убийства ящика Пандоры / Garage Sale Mystery: Pandora's Box [2018 HDTVRip] MVO ["Синема УС"] bober100 Скачать
2 | 0
Наши сериалы [ 11.63 GB ] Гаражи / 1-17 серии из 17 [2010 DVDRip] bober100 Скачать
1 | 0


>> Регистрируемся здесь <<






Отзывы и комментарии о схеме читаем и пишем здесь: ---> Отзывы и комментарии о схеме

Новые благодарочки в телеграм довольных пользователей:
скриншот   скриншот   скриншот   скриншот   скриншот
    Дорогой пользователь! Огромная просьба, поблагодарите релизера, оцените раздачу и оставьте свои комментарий, если Вы скачали Гараж через торрент бесплатно! Внесите свою лепту в развитие PiratBit!
    Комментировать посты могут только пользователи прошедшие не сложную регистрацию
    Показать сообщения:    

    Гараж через торрент
    Скачать бесплатно Гараж
    Гараж скачать торрент
    Гараж смотреть онлайн
    Cкачать фильм Гараж бесплатно
    Гараж скачать торрент в хорошем качестве
    Гараж смотреть онлайн бесплатно в хорошем качестве


    Вы не можете начинать темы
    Вы не можете отвечать на сообщения
    Вы не можете редактировать свои сообщения
    Вы не можете удалять свои сообщения
    Вы не можете голосовать в опросах
    Вы не можете прикреплять файлы к сообщениям
    Вы можете скачивать файлы