1 сезон

1 сезон

iTunes

1

КиноПоиск HD

Кинопоиск HD

iTunes

13

1 сезон

RePack

30

Новинка

ВАЖНО

ИГРА 18+

pack

RePack

MK11
pack

Легкие деньги

RePack

jed

RePack

fifa19

RePack

RDR2

RePack

NEED FOR SPEED™ PAYBACK

4 сезон

9 сезон

Бесстыжие 9 сезон

Все сериалы

все сериалы на PB.wtf

RePack

FAR CRY 5
  
Magnet ссылка

Короли скорости / Abgefahren (Якоб Шойффелен) [2004 г., Боевик, комедия, DVDRip] MVO pb.wtf

Короли скорости через торрент pb.wtf

Размер: 806 MB | Добавлен: 6 лет 8 мес. назад | Торрент скачан:86 раз
Скачать  

22-07-2014 14:43 Короли скорости Скачать торрент  

Короли скорости / Abgefahren
Год выпуска: 2004
Страна: Германия, Concorde
Жанр: Боевик, комедия
Продолжительность: 01:25:41
Перевод: Профессиональный многоголосый

Режиссер: Якоб Шойффелен
Продюссер: Херберт Дж. Клойбер, Рико фон Гагерн, Paul Günczler
Сценарий: Axel Melzener, Йорн Прехт, Фрэнк Уайсс

Премьера в мире: 1 апреля 2004



В ролях: Фелиситас Воль, Себастьян Штребель, Нина Тенге, Ребекка Моссельманн, Тереза Вайссбах, Флориан Фишер, Юрген Тонкель

Описание: Двадцатилетняя немка мечтает стать самой молодой участницей ралли Париж-Дакар. Она не только прекрасно разбирается в устройстве автомобиля, но и обладает талантом настоящей гонщицы. Однажды она встречает симпатичного парня на роскошном автомобиле, который участвует в нелегальных гонках. Во что выльется это знакомство? Какова участь влюбленных гонщиков? И кто же все-таки победит?

Качество: DVDRip
Формат: AVI
Видео кодек: XviD
Аудио кодек: MP3
Видео: Xvid 640x288, 25.00fps, 1 239 Kbps
Аудио: MPEG Audio Layer 3 48000Hz stereo 64kbps
Релиз от: ADDEATH





General
Complete name : E:\01 favorit 3\Koroli.skorosti.2004.XviD.DVDRip.avi
Format : AVI
Format/Info : Audio Video Interleave
File size : 806 MiB
Duration : 1h 25mn
Overall bit rate : 1 316 Kbps
Writing application : Lavf52.0.0

Video
ID : 0
Format : xvid
Codec ID : xvid
Duration : 1h 25mn
Bit rate : 1 239 Kbps
Width : 640 pixels
Height : 288 pixels
Display aspect ratio : 2.222
Frame rate : 25.000 fps
Bits/(Pixel*Frame) : 0.269
Stream size : 759 MiB (94%)

Audio
ID : 1
Format : MPEG Audio
Format version : Version 1
Format profile : Layer 3
Mode : Joint stereo
Mode extension : MS Stereo
Codec ID : 55
Codec ID/Hint : MP3
Duration : 1h 25mn
Bit rate mode : Constant
Bit rate : 64.0 Kbps
Channel(s) : 2 channels
Sampling rate : 48.0 KHz
Compression mode : Lossy
Stream size : 39.2 MiB (5%)
Alignment : Aligned on interleaves
Interleave, duration : 24 ms (0.60 video frame)
Interleave, preload duration : 24 ms

pb.wtf



Скачать Короли скорости через торрент https://pic.kartinco.top/images/6/gd18n.jpg Скачать фильм Короли скорости через торрент бесплантно в хорошем качестве Описание: Двадцатилетняя немка мечтает стать самой молодой участницей ралли Париж-Дакар. Она не только прекрасно разбирается в устройстве ... 10 10 5
Торрент: Зарегистрирован [2014-07-22 14:55] · скачан: 86 раз
Статус: √ проверено
Размер: 806 MB
Как cкачать? Как скачать Короли скорости через торрент | UTorrent

28-11-2019 20:33  

Отключить всю рекламу на сайте

    Дорогой пользователь! Огромная просьба, поблагодарите релизера, оцените раздачу и оставьте свои комментарий, если Вы скачали Короли скорости через торрент бесплатно! Внесите свою лепту в развитие PiratBit!
    Комментировать посты могут только пользователи прошедшие не сложную регистрацию
    Показать сообщения:    

    Короли скорости через торрент
    Скачать бесплатно Короли скорости
    Короли скорости скачать торрент
    Короли скорости смотреть онлайн
    Cкачать фильм Короли скорости бесплатно
    Короли скорости скачать торрент в хорошем качестве
    Короли скорости смотреть онлайн бесплатно в хорошем качестве


    Вы не можете начинать темы
    Вы не можете отвечать на сообщения
    Вы не можете редактировать свои сообщения
    Вы не можете удалять свои сообщения
    Вы не можете голосовать в опросах
    Вы не можете прикреплять файлы к сообщениям
    Вы можете скачивать файлы