2 сезон

iTunes

MVO

1

2 сезон

iTunes

iTunes

1 сезон

RePack

30

Новинка

ВАЖНО

ИГРА 18+

pack

RePack

MK11
pack

Легкие деньги

RePack

jed

RePack

fifa19

RePack

RDR2

RePack

NEED FOR SPEED™ PAYBACK

4 сезон

9 сезон

Бесстыжие 9 сезон

Все сериалы

все сериалы на PB.wtf

RePack

FAR CRY 5

Anonymous, добрый день, мы не успеваем собрать деньги на оплату серверов за декабрь и январь, помогите нам пожалуйста в это трудное время. В качестве благодарности мы отключим Вам всю рекламу на сайте (укажите свой ник в строку Ваше имя)!

×
  
Magnet ссылка

Ной / Noah (Даррен Аронофски ) [2014, драма, приключения, фэнтези, BDRip 1080p, Дубляж / Горизонтальная анаморфная стереопара pb.wtf

Ной через торрент pb.wtf

Размер: 12.86 GB | Добавлен: 6 лет 5 мес. назад | Торрент скачан:1096 раз
Скачать  

23-07-2014 06:33 Ной Скачать торрент  


Ной / Noah

«Конец — это только начало»

Год выпуска:2014
Страна:США
Жанр:драма, приключения, фэнтези
Продолжительность:02:17:54
Перевод:Дубляж [iTunes]
Субтитры: Нет
Режиссер:Даррен Аронофски / Darren Aronofsky
В ролях:

Рассел Кроу (Noah), Дженнифер Коннелли (Naameh), Рэй Уинстон (Tubal-cain), Энтони Хопкинс (Methuselah), Эмма Уотсон (Ila), Логан Лерман (Ham), Дуглас Бут (Shem), Ник Нолти (Samyaza, озвучка), Марк Марголис (Magog, озвучка), Кевин Дюран (Rameel), Лео МакХью Кэрролл (Japheth), Мартон Чокаш (Lamech)
  • Описание:
    История отца, воина и спасителя Человечества и всего живого на Земле.


    Качество:BDRip 1080p
    Формат:MKV
    Формат 3D: Anamorph SideBySide / Горизонтальная анаморфная стереопара
    Видео кодек: AVC
    Аудио кодек:AC3
    Видео: AVC, 1920x1080 (16:9), 12500 kbps, 23,976 fps, 0,251 bpp
    Аудио №1: русский / AC3 / 5.1 / 48 kHz / 384 kbps / 16 bit || [iTunes]
    Аудио №2: украинский / AC3 / 2.0 / 48 kHz / 192 kbps / 16 bit [iTunes]
    Аудио №3: английский / AC3 / 5.1 / 48 kHz / 384 kbps / 16 bit

    Код:

    General
    Unique ID                                : 171045087107719198504246479285305458334 (0x80AE15E3FD8D24B38504084048BFBE9E)
    Complete name                            : D:\Торенты\Ной.3D.2014.3D.mkv
    Format                                   : Matroska
    Format version                           : Version 2
    File size                                : 12.9 GiB
    Duration                                 : 2h 17mn
    Overall bit rate                         : 13.4 Mbps
    Movie name                               : Noah.2014.3D.H-SBS.[torrent3d.ru]
    Encoded date                             : UTC 2014-07-22 15:54:08
    Writing application                      : mkvmerge v4.0.0 ('The Stars were mine') сборка от Jun  6 2010 16:18:42
    Writing library                          : libebml v1.0.0 + libmatroska v1.0.0

    Video
    ID                                       : 1
    Format                                   : AVC
    Format/Info                              : Advanced Video Codec
    Format profile                           : High@L4.1
    Format settings, CABAC                   : Yes
    Format settings, ReFrames                : 4 frames
    Codec ID                                 : V_MPEG4/ISO/AVC
    Duration                                 : 2h 17mn
    Bit rate                                 : 12.5 Mbps
    Width                                    : 1 920 pixels
    Height                                   : 1 080 pixels
    Display aspect ratio                     : 16:9
    Frame rate                               : 23.976 fps
    Color space                              : YUV
    Chroma subsampling                       : 4:2:0
    Bit depth                                : 8 bits
    Scan type                                : Progressive
    Bits/(Pixel*Frame)                       : 0.251
    Stream size                              : 11.7 GiB (91%)
    Writing library                          : x264 core 142 r2431 ac76440
    Encoding settings                        : cabac=1 / ref=4 / deblock=1:0:0 / analyse=0x3:0x113 / me=umh / subme=8 / psy=1 / psy_rd=1.00:0.00 / mixed_ref=1 / me_range=16 / chroma_me=1 / trellis=1 / 8x8dct=1 / cqm=0 / deadzone=21,11 / fast_pskip=1 / chroma_qp_offset=-2 / threads=12 / lookahead_threads=2 / sliced_threads=0 / nr=0 / decimate=1 / interlaced=0 / bluray_compat=0 / constrained_intra=0 / bframes=3 / b_pyramid=2 / b_adapt=2 / b_bias=0 / direct=3 / weightb=1 / open_gop=0 / weightp=2 / keyint=240 / keyint_min=24 / scenecut=40 / intra_refresh=0 / rc_lookahead=50 / rc=abr / mbtree=1 / bitrate=12500 / ratetol=1.0 / qcomp=0.60 / qpmin=0 / qpmax=69 / qpstep=4 / vbv_maxrate=62500 / vbv_bufsize=78125 / nal_hrd=none / filler=0 / ip_ratio=1.40 / aq=1:1.00
    Default                                  : No
    Forced                                   : No
    Color primaries                          : BT.709-5, BT.1361, IEC 61966-2-4, SMPTE RP177
    Transfer characteristics                 : BT.709-5, BT.1361
    Matrix coefficients                      : BT.709-5, BT.1361, IEC 61966-2-4 709, SMPTE RP177

    Audio #1
    ID                                       : 2
    Format                                   : AC-3
    Format/Info                              : Audio Coding 3
    Mode extension                           : CM (complete main)
    Codec ID                                 : A_AC3
    Duration                                 : 2h 17mn
    Bit rate mode                            : Constant
    Bit rate                                 : 384 Kbps
    Channel(s)                               : 6 channels
    Channel positions                        : Front: L C R, Side: L R, LFE
    Sampling rate                            : 48.0 KHz
    Bit depth                                : 16 bits
    Compression mode                         : Lossy
    Delay relative to video                  : -83ms
    Stream size                              : 379 MiB (3%)
    Title                                    : iTunes
    Language                                 : Russian
    Default                                  : Yes
    Forced                                   : Yes

    Audio #2
    ID                                       : 3
    Format                                   : AC-3
    Format/Info                              : Audio Coding 3
    Mode extension                           : CM (complete main)
    Codec ID                                 : A_AC3
    Duration                                 : 2h 17mn
    Bit rate mode                            : Constant
    Bit rate                                 : 192 Kbps
    Channel(s)                               : 2 channels
    Channel positions                        : Front: L R
    Sampling rate                            : 48.0 KHz
    Bit depth                                : 16 bits
    Compression mode                         : Lossy
    Delay relative to video                  : -83ms
    Stream size                              : 189 MiB (1%)
    Title                                    : DUB {LeDoyen Studio} - iTunes Russia
    Language                                 : Ukrainian
    Default                                  : No
    Forced                                   : No

    Audio #3
    ID                                       : 4
    Format                                   : AC-3
    Format/Info                              : Audio Coding 3
    Mode extension                           : CM (complete main)
    Codec ID                                 : A_AC3
    Duration                                 : 2h 17mn
    Bit rate mode                            : Constant
    Bit rate                                 : 384 Kbps
    Channel(s)                               : 6 channels
    Channel positions                        : Front: L C R, Side: L R, LFE
    Sampling rate                            : 48.0 KHz
    Bit depth                                : 16 bits
    Compression mode                         : Lossy
    Delay relative to video                  : -83ms
    Stream size                              : 379 MiB (3%)
    Title                                    : Original
    Language                                 : English
    Default                                  : No
    Forced                                   : No

    Menu
    00:00:00.000                             : :00:00:00.000
    00:04:49.039                             : :00:04:48.955
    00:08:37.392                             : :00:08:37.267
    00:12:23.159                             : :00:12:23.034
    00:18:43.164                             : :00:18:43.080
    00:23:25.571                             : :00:23:25.487
    00:32:06.508                             : :00:32:06.424
    00:37:27.287                             : :00:37:27.203
    00:42:50.860                             : :00:42:50.735
    00:54:35.731                             : :00:54:35.647
    01:01:15.088                             : :01:01:14.963
    01:03:28.680                             : :01:03:28.596
    01:09:34.087                             : :01:09:33.795
    01:19:18.462                             : :01:19:18.337
    01:21:56.829                             : :01:21:56.537
    01:29:12.430                             : :01:29:12.347
    01:34:02.136                             : :01:34:02.053
    01:40:27.605                             : :01:40:27.355
    01:49:23.140                             : :01:49:23.098
    01:55:57.868                             : :01:55:57.826
    02:00:37.272                             : :02:00:37.230
    02:11:32.718                             : :02:11:32.676


    Скриншоты:

    Каталог Новинок (Фильмы-трейлеры, Игры, Сериалы, Мультфильмы)
    © Оформление by Raven
    pb.wtf



  • Скачать Ной через торрент http://pic.kartinco.top/images/6/ordi9.jpg Скачать фильм Ной через торрент бесплантно в хорошем качестве Описание:История отца, воина и спасителя Человечества и всего живого на ... 9.9 10 27
    Info! Золотая раздача, скачанное не засчитывается.
    Торрент: Зарегистрирован [2014-07-23 06:33] · скачан: 1 096 раз
    Статус: √ проверено
    Размер: 12.86 GB
    Как cкачать? Как скачать Ной через торрент | UTorrent

    % Раздел Тема Автор DL S | L
    3D Видео (48-60 fps) [ 16.64 GB ] Ной / Noah [2014 3D BDRip 1080p / 60 FPSГоризонтальная анаморфная стереопара ] Tiberiumsun69 Скачать
    1 | 0

    28-11-2019 20:33  

    Отключить всю рекламу на сайте

    24-07-2014 13:28 Ной Скачать торрент  

    Автор, єто вертикальная стереопара судя по картинкам .pb.wtf



    25-07-2014 05:24 Ной Скачать торрент  

    KUSTELLO писал(а):

    Автор, єто вертикальная стереопара судя по картинкам .

    Горизонтальная стереопара (Side-by-side)[править | править вики-текст]
    Как правило, классическая стереопара представляет собой два изображения, расположенные горизонтально рядом друг с другом на расстоянии, обычно соответствующем межзрачковому расстоянию человека.pb.wtf



    25-07-2014 20:31 Ной Скачать торрент  

    Где-то на 23 минуте полностью пропала речь! музыка есть, фон есть а речи нет! что за хрень?
    однако!
    на компе речь появилась а на телеке нет... мистикаааpb.wtf



      Дорогой пользователь! Огромная просьба, поблагодарите релизера, оцените раздачу и оставьте свои комментарий, если Вы скачали Ной через торрент бесплатно! Внесите свою лепту в развитие PiratBit!
      Комментировать посты могут только пользователи прошедшие не сложную регистрацию
      Показать сообщения:    

      Ной через торрент
      Скачать бесплатно Ной
      Ной скачать торрент
      Ной смотреть онлайн
      Cкачать фильм Ной бесплатно
      Ной скачать торрент в хорошем качестве
      Ной смотреть онлайн бесплатно в хорошем качестве


      Вы не можете начинать темы
      Вы не можете отвечать на сообщения
      Вы не можете редактировать свои сообщения
      Вы не можете удалять свои сообщения
      Вы не можете голосовать в опросах
      Вы не можете прикреплять файлы к сообщениям
      Вы можете скачивать файлы