1 сезон

3 сезон

iTunes

1

iTunes

MVO

iTunes

13

1 сезон

RePack

30

Deluxe

pack

Лицензия

ВАЖНО

ИГРА 18+

pack

RePack

MK11

RePack

jed

RePack

fifa19

RePack

RDR2

RePack

NEED FOR SPEED™ PAYBACK

4 сезон

9 сезон

Бесстыжие 9 сезон

Все сериалы

все сериалы на PB.wtf

RePack

FAR CRY 5

Anonymous, доброй ночи, мы катастрофически не успеваем собрать деньги на оплату серверов, помогите нам пожалуйста 5,10,15р., для нас важна любая помощь . В качестве благодарности мы отключим Вам всю рекламу на сайте (укажите свой ник в строку Ваше имя)!

×
  
Magnet ссылка

Блондинка в эфире / Walk of Shame (Стивен Брилл / Steven Brill) [2014, комедия, приключения, DVD5] R5 pb.wtf

Блондинка в эфире через торрент pb.wtf

Размер: 4.2 GB | Добавлен: 7 лет назад | Торрент скачан:49 раз
Скачать  

23-07-2014 07:28 Блондинка в эфире Скачать торрент  


Блондинка в эфире / Walk of Shame
«Улетная ночь. Непредсказуемые последствия»
Страна: США
Студия: FilmDistrict, Lakeshore Entertainment, Sidney Kimmel Entertainment
Жанр: комедия, приключения
Год выпуска: 2014
Мировая премьера: 1 мая 2014
Российская премьера: 7 мая 2014
Дата выхода DVD: 29 июля 2014
Дата выхода Blu-Ray: 29 июля 2014
Продолжительность: 01:30:39
Перевод: Профессиональный (дублированный) [Лицензия]
Cубтитры: нет
Оригинальная аудиодорожка: нет
Режиссер: Стивен Брилл / Steven Brill
В ролях: Элизабет Бэнкс, Джеймс Марсден, Джиллиан Джейкобс, Сара Райт, Итан Сапли, Билли Барр, Кен Давитян, Ларри Джиллиард мл., Альфонсо МакОли, Дэвон МакДональд
Описание: Мечта репортерши стать ведущей программы новостей может быть разрушена. После ночи кутежа она оказывается в дальнем районе Лос-Анджелеса без телефона, автомобиля, паспорта и денег — и у нее остается только 8 часов, чтобы добраться до самого важного собеседования ее жизни.
Бонусы: Скоро на DVD

Релиз группы:
Качество: DVD5 R5
Формат: DVD-Video
Видео кодек: MPEG2
Аудио кодек: AC3
Видео: PAL 16:9 (720x576(0.527)) MPEG Video, 25,000 кадр/сек, 5461 Кбит/сек
Аудио: Russian (Dolby AC3, 6 ch) 384 Кбит/сек, 48,0 КГц



Title: Blondinka.v.jefire.2014.DVD5
Size: 4.20 Gb ( 4 409 106,00 KBytes ) - DVD-5
Enabled regions: 1, 2, 3, 4, 5, 6, 7, 8

VTS_01 :
Play Length: 01:30:39
Video: PAL 16:9 (720x576) VBR, Auto Letterboxed
Audio:
Russian (Dolby AC3, 6 ch)

VTS_02 :
Play Length: 00:09:07
Video: PAL 16:9 (720x576) VBR, Auto Letterboxed
Audio:
Not specified (Dolby AC3, 2 ch)

* Menus Information *

VIDEO_TS Menu
Video:
PAL 16:9 (720x576) VBR
Auto Pan&Scan
Audio:
Not specified (Dolby AC3, 2 ch)
Russian Language Unit :
Title Menu

VTS_01 Menu
Video:
PAL 16:9 (720x576) VBR
Auto Pan&Scan
Audio:
Not specified (Dolby AC3, 6 ch)
Russian Language Unit :
Root Menu
Chapter (PTT) Menu

VTS_02 Menu
Video:
NTSC 4:3 (720x480) VBR
Auto Pan&Scan, Auto Letterboxed
Russian Language Unit :
Root Menu
Общее
Полное имя : D:\Новинки 2014\Blondinka.v.jefire.2014.DVD5\VIDEO_TS\VTS_01_2.VOB
Формат : MPEG-PS
Размер файла : 1024 Мбайт
Продолжительность : 24 м.
Режим общего битрейта : Переменный
Общий поток : 5964 Кбит/сек

Видео
Идентификатор : 224 (0xE0)
Формат : MPEG Video
Версия формата : Version 2
Профиль формата : Main@Main
Параметр BVOP формата : Да
Параметр матрицы формата : Выборочная
Параметр GOP формата : Variable
Продолжительность : 24 м.
Вид битрейта : Переменный
Битрейт : 5461 Кбит/сек
Максимальный битрейт : 9000 Кбит/сек
Ширина : 720 пикселей
Высота : 576 пикселей
Соотношение сторон : 16:9
Частота кадров : 25,000 кадров/сек
Стандарт вещания : PAL
Цветовое пространство : YUV
Субдискретизация насыщенности : 4:2:0
Битовая глубина : 8 бит
Тип развёртки : Прогрессивная
Порядок развёртки : Верхнее поле первое
Метод сжатия : С потерями
Бит/(Пиксели*Кадры) : 0.527
Временной код первого кадра : 01:24:51:22
Оригинал временного кода : Group of pictures header
Размер потока : 938 Мбайт (92%)

Аудио
Идентификатор : 189 (0xBD)-128 (0x80)
Формат : AC-3
Формат/Информация : Audio Coding 3
Расширение режима : CM (complete main)
Параметр Endianness формата : Big
Режим смешивания : DVD-Video
Продолжительность : 24 м.
Вид битрейта : Постоянный
Битрейт : 384 Кбит/сек
Каналы : 6 каналов
Расположение каналов : Front: L C R, Side: L R, LFE
Частота : 48,0 КГц
Битовая глубина : 16 бит
Метод сжатия : С потерями
Задержка видео : -536 мс.
Размер потока : 65,9 Мбайт (6%)










pb.wtf



Скачать Блондинка в эфире через торрент http://i68.fastpic.ru/big/2014/0723/22/b90b42c3317169dfa701b88e02d25c22.jpg Скачать фильм Блондинка в эфире через торрент бесплантно в хорошем качестве Описание: Мечта репортерши стать ведущей программы новостей может быть разрушена. После ночи кутежа она оказывается в дальнем районе ... 9.7 10 6
Info! Золотая раздача, скачанное не засчитывается.
Торрент: Зарегистрирован [2014-07-23 07:28] · скачан: 49 раз
Статус: √ проверено
Размер: 4.2 GB
Как cкачать? Как скачать Блондинка в эфире через торрент | UTorrent

% Раздел Тема Автор DL S | L
Фильмы [HD 720p, 1080p] (Хороший звук DUB, MVO) [ 12.85 GB ] Блондинка в эфире / Walk of Shame [2014 BDRip 1080p ] от R.G. HD-Films Seedtank Скачать
1 | 0

28-11-2019 20:33  

Отключить всю рекламу на сайте

    Дорогой пользователь! Огромная просьба, поблагодарите релизера, оцените раздачу и оставьте свои комментарий, если Вы скачали Блондинка в эфире через торрент бесплатно! Внесите свою лепту в развитие PiratBit!
    Комментировать посты могут только пользователи прошедшие не сложную регистрацию
    Показать сообщения:    

    Блондинка в эфире через торрент
    Скачать бесплатно Блондинка в эфире
    Блондинка в эфире скачать торрент
    Блондинка в эфире смотреть онлайн
    Cкачать фильм Блондинка в эфире бесплатно
    Блондинка в эфире скачать торрент в хорошем качестве
    Блондинка в эфире смотреть онлайн бесплатно в хорошем качестве


    Вы не можете начинать темы
    Вы не можете отвечать на сообщения
    Вы не можете редактировать свои сообщения
    Вы не можете удалять свои сообщения
    Вы не можете голосовать в опросах
    Вы не можете прикреплять файлы к сообщениям
    Вы можете скачивать файлы