Ссылка на приватное зеркало нашего сайта всего за 1$. Внимание количество ограничено!!!

2 сезон

iTunes

1 сезон

1

iTunes

iTunes

iTunes

1 сезон

RePack

30

ИГРА 18+

pack

ВАЖНО

!!Акция!!

Alien_RageХит недели

RePack

MK11
pack

Забери бонус

RePack

jed

!!Акция!!

Alien_Rage

RePack

fifa19

RePack

Assassins Creed: Odyssey

RePack

NEED FOR SPEED™ PAYBACK

4 сезон

9 сезон

Бесстыжие 9 сезон

Все сериалы

все сериалы на PB.wtf

RePack

FAR CRY 5
  

Все вещи для всех людей / All Things to All Men (Джордж Иссак / George Isaac) [2013, Великобритания, триллер, криминал, HDRip, VO [R.A.I.M] pb.wtf

Все вещи для всех людей через торрент pb.wtf

Размер: 1.36 GB | Добавлен: 6 лет 3 мес. назад | Торрент скачан:189 раз
Скачать  

24-07-2014 16:50 Все вещи для всех людей Скачать торрент  


Все вещи для всех людей / All Things to All Men


Год выпуска:2013
Страна:Великобритания
Жанр:триллер, криминал
Продолжительность:01:25:02
Перевод:Любительский (одноголосый) [R.A.I.M]
Режиссер:Джордж Иссак / George Isaac
В ролях:

Тоби Стивенс (Riley), Руфус Сьюэлл (Parker), Марк Бэдхэм (The Barman), Гэбриел Бирн (Joseph Corso), Гил Дарнелл (Adrian Peters), Том Дэвис, Ian Driving (Drake), Джеймс Фрейн (Attorney General), Лео Грегори (Dixon), МС Харви (Curtis Carter), Роб Найтон (McDears Heavy), Пьер Масколо (Mark Corso)
  • Описание:
    Криминальный триллер об игре в кошки-мышки, которую затеяли на улицах современного Лондона полицейский босс, криминальный авторитет Джозеф Корсо и преступник по имени Райли. Там где замешаны большие деньги нет, и не может быть места взаимному доверию и дружбе. Вот и главный герой фильма, идя на преступление, не может доверять даже своим сообщникам. На него открывается настоящая охота и самое страшное, что противостоять злодеям он должен в одиночку. Но судьба хранит уверенных в себе людей, и ему удается, преодолев личные моральные устои справиться с врагами. Устраняя одну преграду за другой со своего пути, он движется к заветной цели и именно такая целеустремленность позволяет ему сохранить жизнь, а возможно и приобрести кое-что еще.


    Качество:HDRip
    Формат:AVI
    Видео кодек: XviD
    Аудио кодек:AC3, MP3
    Видео: XviD, 720x304 (2.35:1), 1771 kbps, 23,976 fps, 0,338 bpp
    Аудио №1: MP3 / 2.0 / 48 kHz / 128 kbps /-Русский
    Аудио №2: AC3 / 5.1 / 48 kHz / 384 kbps / 16 bit-Английский

    Код:

    General
    Complete name                            : D:\Торенты\Все вещи для всех людей.2013.HDRip.avi
    Format                                   : AVI
    Format/Info                              : Audio Video Interleave
    File size                                : 1.36 GiB
    Duration                                 : 1h 25mn
    Overall bit rate                         : 2 297 Kbps
    Writing application                      : VirtualDubMod 1.5.10.3 | www.virtualdub-fr.org || (build 2550/release)
    Writing library                          : VirtualDubMod build 2550/release

    Video
    ID                                       : 0
    Format                                   : MPEG-4 Visual
    Format profile                           : Advanced Simple@L5
    Format settings, BVOP                    : 1
    Format settings, QPel                    : No
    Format settings, GMC                     : No warppoints
    Format settings, Matrix                  : Custom
    Codec ID                                 : XVID
    Codec ID/Hint                            : XviD
    Duration                                 : 1h 25mn
    Bit rate                                 : 1 771 Kbps
    Width                                    : 720 pixels
    Height                                   : 304 pixels
    Display aspect ratio                     : 2.35:1
    Frame rate                               : 23.976 fps
    Color space                              : YUV
    Chroma subsampling                       : 4:2:0
    Bit depth                                : 8 bits
    Scan type                                : Progressive
    Compression mode                         : Lossy
    Bits/(Pixel*Frame)                       : 0.338
    Stream size                              : 1.05 GiB (77%)
    Writing library                          : XviD 1.2.1 (UTC 2008-12-04)

    Audio #1
    ID                                       : 1
    Format                                   : MPEG Audio
    Format version                           : Version 1
    Format profile                           : Layer 3
    Mode                                     : Joint stereo
    Codec ID                                 : 55
    Codec ID/Hint                            : MP3
    Duration                                 : 1h 25mn
    Bit rate mode                            : Constant
    Bit rate                                 : 128 Kbps
    Channel(s)                               : 2 channels
    Sampling rate                            : 48.0 KHz
    Compression mode                         : Lossy
    Stream size                              : 77.9 MiB (6%)
    Alignment                                : Aligned on interleaves
    Interleave, duration                     : 42 ms (1.00 video frame)
    Interleave, preload duration             : 504 ms
    Writing library                          : LAME3.97
    Encoding settings                        : -m j -V 4 -q 3 -lowpass 17 -b 128

    Audio #2
    ID                                       : 2
    Format                                   : AC-3
    Format/Info                              : Audio Coding 3
    Mode extension                           : CM (complete main)
    Codec ID                                 : 2000
    Duration                                 : 1h 25mn
    Bit rate mode                            : Constant
    Bit rate                                 : 384 Kbps
    Channel(s)                               : 6 channels
    Channel positions                        : Front: L C R, Side: L R, LFE
    Sampling rate                            : 48.0 KHz
    Bit depth                                : 16 bits
    Compression mode                         : Lossy
    Stream size                              : 234 MiB (17%)
    Alignment                                : Split accross interleaves
    Interleave, duration                     : 42 ms (1.00 video frame)
    Interleave, preload duration             : 500 ms


    Скриншоты:

    Каталог Новинок (Фильмы-трейлеры, Игры, Сериалы, Мультфильмы)
    © Оформление by Raven
    pb.wtf



  • Скачать Все вещи для всех людей через торрент http://pic.kartinco.top/images/6/ordi9.jpg Скачать фильм Все вещи для всех людей через торрент бесплантно в хорошем качестве Описание:Криминальный триллер об игре в кошки-мышки, которую затеяли на улицах современного Лондона полицейский босс, криминальный ... 9 10 7
    Торрент: Зарегистрирован [2014-07-24 16:50] · скачан: 189 раз
    Статус: √ проверено
    Размер: 1.36 GB
    Как cкачать? Как скачать Все вещи для всех людей через торрент | qTorrent

    28-11-2019 20:33  

    Отключить всю рекламу на сайте

      Дорогой пользователь! Огромная просьба, поблагодарите релизера, оцените раздачу и оставьте свои комментарий, если Вы скачали Все вещи для всех людей через торрент бесплатно! Внесите свою лепту в развитие PiratBit!
      Комментировать посты могут только пользователи прошедшие не сложную регистрацию
      Показать сообщения:    

      Все вещи для всех людей через торрент
      Скачать бесплатно Все вещи для всех людей
      Все вещи для всех людей скачать торрент
      Все вещи для всех людей смотреть онлайн
      Cкачать фильм Все вещи для всех людей бесплатно
      Все вещи для всех людей скачать торрент в хорошем качестве
      Все вещи для всех людей смотреть онлайн бесплатно в хорошем качестве


      Вы не можете начинать темы
      Вы не можете отвечать на сообщения
      Вы не можете редактировать свои сообщения
      Вы не можете удалять свои сообщения
      Вы не можете голосовать в опросах
      Вы не можете прикреплять файлы к сообщениям
      Вы можете скачивать файлы