Всегда рабочее зеркало просто перед .vidak.icu напиши любое слово или цифру, Пример http://3nn.vidak.icu

>

7.4

iTunes

7.4

2 сезон

9.4

1 сезон

1

7.4

2 сезон

7.2

iTunes

6.0

MVO

13

6.1

iTunes

8.3

Пиратка

30

ULTIMATE

pack

9.9

Лицензия

ВАЖНО

ИГРА 18+

pack

7.3

RePack

MK11

7.7

RePack

jed

7.8

RePack

fifa19

8.5

RePack

RDR2

RePack

NEED FOR SPEED™ PAYBACK

1 сезон

9 сезон

Бесстыжие 9 сезон

Все сериалы

все сериалы на PB.wtf

RePack

FAR CRY 5

Anonymous, доброй ночи, мы катастрофически не успеваем собрать деньги на оплату серверов, помогите нам пожалуйста 5,10,15р., для нас важна любая помощь . В качестве благодарности мы отключим Вам всю рекламу на сайте (укажите свой ник в строку Ваше имя)!

×
  
Magnet ссылка

Полицейский из Беверли-Хиллз 3 / Beverly Hills Cop 3 (Джон Лэндис / John Landis) [1994, Боевик, Триллер, Драма, Комедия, Криминал, HDTVRip] [AVO] (А.Гаврилов) pb.wtf

Полицейский из Беверли-Хиллз 3 через торрент pb.wtf

Размер: 1.46 GB | Добавлен: 7 лет 5 мес. назад | Торрент скачан:60 раз
Смотреть онлайн Полицейский из Беверли-Хиллз 3 | Скачать    Ребята, помогите собрать деньги на оплату серверов!!!

24-07-2014 19:46 Полицейский из Беверли-Хиллз 3 Скачать торрент  


Полицейский из Беверли-Хиллз 3 / Beverly Hills Cop III

Год выпуска: 1994
Страна: США
Жанр: Боевик, Триллер, Драма, Комедия, Криминал
Продолжительность: 01:44:11
Перевод: Авторский (одноголосый, закадровый) (А.Гаврилов)
Cубтитры: Нет
Режиссер: Джон Лэндис / John Landis

В ролях: Эдди Мёрфи, Джадж Райнхолд, Гектор Элизондо, Джон Сэксон, Тереза Рэндл, Бронсон Пинчот, Тимоти Кархарт, Стивен МакХэтти, Алан Янг, Эл Грин и др.

Описание: После перерыва в семь лет полицейский из Детройта Аксель Фоули (Эдди Мерфи) снова вынужден побывать у своих друзей в Беверли-Хиллз. Его приводят туда поиски убийцы любимого шефа.
В результате парк аттракционов «Мир чудес», где бандиты в жутком подполье печатали фальшивые доллары, стал ареной боевых действий, а наш герой отомстил убийцам, прославился и познакомился с очаровательной работницей парка.


Качество: HDTVRip [Rip by AngelOfTrue]
Формат: AVI
Видео кодек: XviD
Аудио кодек: AC3
Видео: 704x400 (1.76:1), 23.976 fps, XviD build 50 ~1549 kbps avg, 0.23 bit/pixel
Аудио: 48 kHz, AC3 Dolby Digital, 3/2 (L,C,R,l,r) + LFE ch, ~448.00 kbps avg Приятного вам просмотра!
Format : AVI
Format/Info : Audio Video Interleave
File size : 1.46 GiB
Duration : 1h 44mn
Overall bit rate : 2 007 Kbps
Writing application : VirtualDubMod 1.5.10.3 | www.virtualdub-fr.org || (build 2550/release)
Writing library : VirtualDubMod build 2550/release
Video
ID : 0
Format : MPEG-4 Visual
Format profile : Advanced Simple@L5
Format settings, BVOP : 2
Format settings, QPel : No
Format settings, GMC : No warppoints
Format settings, Matrix : Custom
Codec ID : XVID
Codec ID/Hint : XviD
Duration : 1h 44mn
Bit rate : 1 549 Kbps
Width : 704 pixels
Height : 400 pixels
Display aspect ratio : 16:9
Frame rate : 23.976 fps
Color space : YUV
Chroma subsampling : 4:2:0
Bit depth : 8 bits
Scan type : Progressive
Compression mode : Lossy
Bits/(Pixel*Frame) : 0.229
Stream size : 1.13 GiB (77%)
Writing library : XviD 1.2.1 (UTC 2008-12-04)
Audio
ID : 1
Format : AC-3
Format/Info : Audio Coding 3
Mode extension : CM (complete main)
Codec ID : 2000
Duration : 1h 44mn
Bit rate mode : Constant
Bit rate : 448 Kbps
Channel(s) : 6 channels
Channel positions : Front: L C R, Side: L R, LFE
Sampling rate : 48.0 KHz
Bit depth : 16 bits
Compression mode : Lossy
Stream size : 334 MiB (22%)
Alignment : Split accross interleaves
Interleave, duration : 42 ms (1.00 video frame)
Interleave, preload duration : 500 ms
скриншот   скриншот   скриншот   скриншот   скриншот   скриншот   скриншот   скриншот  
pb.wtf



Скачать Полицейский из Беверли-Хиллз 3 через торрент http://i67.fastpic.ru/big/2014/0724/bc/4b58e82468dbe673c9814d1396b818bc.jpg Скачать, смотреть онлайн Полицейский из Беверли-Хиллз 3 бесплантно в хорошем качестве Описание: После перерыва в семь лет полицейский из Детройта Аксель Фоули (Эдди Мерфи) снова вынужден побывать у своих друзей в ... 10 10 5
Торрент: Зарегистрирован [2014-07-24 19:46] · скачан: 60 раз
Статус: √ проверено
Размер: 1.46 GB
Как cкачать? Как скачать Полицейский из Беверли-Хиллз 3 через торрент | UTorrent

% Раздел Тема Автор DL S | L
Фильмы [HD 720p, 1080p] (Хороший звук DUB, MVO) [ 8.87 GB ] Полицейский из Беверли-Хиллз 3 / Beverly Hills Cop III [1994 BDRip 1080p flatro1 Скачать
1 | 0
Фильмы до 2000 г. [ 1.37 GB ] Полицейский из Беверли-Хиллз 3 / Beverly Hills Cop III [1994 DVDRip] chaga2009 Скачать
1 | 0

28-11-2019 20:33  

Отключить всю рекламу на сайте

    Дорогой пользователь! Огромная просьба, поблагодарите релизера, оцените раздачу и оставьте свои комментарий, если Вы скачали Полицейский из Беверли-Хиллз 3 через торрент бесплатно!
    Комментировать посты могут только пользователи прошедшие не сложную регистрацию
    Показать сообщения:    

    Полицейский из Беверли-Хиллз 3 через торрент
    Скачать бесплатно Полицейский из Беверли-Хиллз 3
    Полицейский из Беверли-Хиллз 3 скачать торрент
    Полицейский из Беверли-Хиллз 3 смотреть онлайн
    Cкачать фильм Полицейский из Беверли-Хиллз 3 бесплатно
    Полицейский из Беверли-Хиллз 3 скачать торрент в хорошем качестве
    Полицейский из Беверли-Хиллз 3 смотреть онлайн бесплатно в хорошем качестве


    Вы не можете начинать темы
    Вы не можете отвечать на сообщения
    Вы не можете редактировать свои сообщения
    Вы не можете удалять свои сообщения
    Вы не можете голосовать в опросах
    Вы не можете прикреплять файлы к сообщениям
    Вы можете скачивать файлы