Всегда рабочее зеркало без VPN и Proxy просто перед .vidak.icu напиши любое слово или цифру, Пример http://030b.vidak.icu

MVO

2 сезон

2 сезон

1

1 сезон

iTunes

2 сезон

13

1 сезон

Deluxe

pack

Рекомендуем

Пиратка

30

ВАЖНО

RePack

MK11

RePack

jed

RePack

fifa19

RePack

RDR2

RePack

NEED FOR SPEED™ PAYBACK

Кинопоиск HD

6 сезон

 Острые козырьки 6 сезон

Все сериалы

все сериалы на PB.wtf

RePack

FAR CRY 5

Anonymous, нам критически не хватает 5601 руб. на оплату серверов и переферии за Апрель, помоги нам пожалуйста, вся надежда только на тебя. В благодарность мы отключим тебе всю рекламу на сайте!

×
  
Magnet ссылка

Воздушный маршал / Non-Stop (Хауме Кольет-Серра / Jaume Collet-Serra) [2014, детектив, триллер, боевик, BDRip 1080p, Дублированный, Лицензия] от R.G. HD-Films pb.wtf

Воздушный маршал через торрент pb.wtf

Размер: 14.1 GB | Добавлен: 7 лет 9 мес. назад | Торрент скачан:309 раз
Смотреть онлайн Воздушный маршал | Скачать    Ребята, помогите собрать деньги на оплату серверов!!!

25-07-2014 01:50 Воздушный маршал Скачать торрент  

Воздушный маршал / Non-Stop
«Захват самолёта - это только начало»



Год выпуска: 2014
Страна: Великобритания, Франция, США, Канада
Жанр: детектив, триллер, боевик
Продолжительность: 01:46:15
Перевод: Дублированный [Лицензия]
Субтитры: Нет (локализованный видеоряд)



Режиссер:
  • Хауме Кольет-Серра / Jaume Collet-Serra
В ролях:
  • Лиам Нисон, Джулианна Мур, Скут МакНэйри, Мишель Докери, Нэйт Паркер, Кори Столл, Лупита Нионго, Омар Метуолли, Джейсон Батлер Харнер, Лайнас Роуч, Ши Уигхэм, Энсон Маунт

Описание: Межконтинентальный авиарейс. Билл Маркс, воздушный маршал, который обеспечивает безопасность пассажиров, получает сообщения с угрозами от маньяка-террориста. Преступник просчитал все ходы и подставил под обвинение самого спецагента. Теперь Маркс - цель спецслужб США. Ему остается одно: вычислить и обезвредить преступника, спасти пассажиров и свою любовь, которую он обретает на краю гибели. До взрыва остаются считанные минуты...



Качество: BDRip 1080p
Формат: MKV
Видео кодек: AVC
Аудио кодек: DTS
Видео: 1920x804 (2.40:1), 23,976 fps, 14500 kbps, 0,392 bpp
Аудио №1: русский, DTS, 48 kHz, 5.1 ch, 1510 kbps (Дублированный)
Аудио №2: русский, DTS, 48 kHz, 5.1 ch, 1510 kbps (Д.Есарев)
Аудио №3: английский, DTS, 48 kHz, 5.1 ch, 1510 kbps


Код:

General
Unique ID                                : 239228789762619630742014545654370024599 (0xB3F9C9FA5A632EA79DADEE8936583C97)
Complete name                            : E:\Воздушный маршал (2014) 1080p.mkv
Format                                   : Matroska
Format version                           : Version 4 / Version 2
File size                                : 14.1 GiB
Duration                                 : 1h 46mn
Overall bit rate                         : 19.0 Mbps
Movie name                               : Воздушный маршал
Encoded date                             : UTC 2014-07-20 13:29:47
Writing application                      : mkvmerge v6.9.1 ('Blue Panther') 64bit built on Apr 18 2014 18:23:38
Writing library                          : libebml v1.3.0 + libmatroska v1.4.1
Attachment                               : Yes

Video
ID                                       : 1
Format                                   : AVC
Format/Info                              : Advanced Video Codec
Format profile                           : High@L4.1
Format settings, CABAC                   : Yes
Format settings, ReFrames                : 5 frames
Codec ID                                 : V_MPEG4/ISO/AVC
Duration                                 : 1h 46mn
Bit rate                                 : 14.5 Mbps
Width                                    : 1 920 pixels
Height                                   : 804 pixels
Display aspect ratio                     : 2.40:1
Frame rate                               : 23.976 fps
Original frame rate                      : 24.000 fps
Color space                              : YUV
Chroma subsampling                       : 4:2:0
Bit depth                                : 8 bits
Scan type                                : Progressive
Bits/(Pixel*Frame)                       : 0.392
Stream size                              : 10.5 GiB (74%)
Title                                    : ollan
Writing library                          : x264 core 125 r2200 999b753
Encoding settings                        : cabac=1 / ref=5 / deblock=1:-3:-3 / analyse=0x3:0x133 / me=umh / subme=11 / psy=1 / psy_rd=1.00:0.10 / mixed_ref=1 / me_range=32 / chroma_me=1 / trellis=2 / 8x8dct=1 / cqm=0 / deadzone=21,11 / fast_pskip=0 / chroma_qp_offset=-3 / threads=12 / lookahead_threads=2 / sliced_threads=0 / nr=0 / decimate=0 / interlaced=0 / bluray_compat=0 / constrained_intra=0 / bframes=9 / b_pyramid=2 / b_adapt=2 / b_bias=0 / direct=3 / weightb=1 / open_gop=0 / weightp=2 / keyint=240 / keyint_min=23 / scenecut=40 / intra_refresh=0 / rc_lookahead=40 / rc=2pass / mbtree=1 / bitrate=14500 / ratetol=1.0 / qcomp=0.60 / qpmin=0 / qpmax=69 / qpstep=4 / cplxblur=20.0 / qblur=0.5 / ip_ratio=1.40 / aq=1:1.00
Language                                 : Russian
Default                                  : Yes
Forced                                   : No

Audio #1
ID                                       : 2
Format                                   : DTS
Format/Info                              : Digital Theater Systems
Codec ID                                 : A_DTS
Duration                                 : 1h 46mn
Bit rate mode                            : Constant
Bit rate                                 : 1 510 Kbps
Channel(s)                               : 6 channels
Channel positions                        : Front: L C R, Side: L R, LFE
Sampling rate                            : 48.0 KHz
Bit depth                                : 24 bits
Compression mode                         : Lossy
Stream size                              : 1.12 GiB (8%)
Title                                    : Дублированный, Blu-ray
Language                                 : Russian
Default                                  : Yes
Forced                                   : No

Audio #2
ID                                       : 3
Format                                   : DTS
Format/Info                              : Digital Theater Systems
Codec ID                                 : A_DTS
Duration                                 : 1h 46mn
Bit rate mode                            : Constant
Bit rate                                 : 1 510 Kbps
Channel(s)                               : 6 channels
Channel positions                        : Front: L C R, Side: L R, LFE
Sampling rate                            : 48.0 KHz
Bit depth                                : 24 bits
Compression mode                         : Lossy
Stream size                              : 1.12 GiB (8%)
Title                                    : Авторский, Д.Есарев
Language                                 : Russian
Default                                  : No
Forced                                   : No

Audio #3
ID                                       : 4
Format                                   : DTS
Format/Info                              : Digital Theater Systems
Codec ID                                 : A_DTS
Duration                                 : 1h 46mn
Bit rate mode                            : Constant
Bit rate                                 : 1 510 Kbps
Channel(s)                               : 6 channels
Channel positions                        : Front: L C R, Side: L R, LFE
Sampling rate                            : 48.0 KHz
Bit depth                                : 24 bits
Compression mode                         : Lossy
Stream size                              : 1.12 GiB (8%)
Title                                    : Оригинал
Language                                 : English
Default                                  : No
Forced                                   : No

Menu
00:00:00.000                             : :Chapter 01
00:07:30.833                             : :Chapter 02
00:16:23.042                             : :Chapter 03
00:23:57.583                             : :Chapter 04
00:32:09.458                             : :Chapter 05
00:40:26.833                             : :Chapter 06
00:52:42.500                             : :Chapter 07
00:58:49.500                             : :Chapter 08
01:05:13.375                             : :Chapter 09
01:12:40.207                             : :Chapter 10
01:21:24.625                             : :Chapter 11
01:36:18.957                             : :Chapter 12

Бюджет фильма: $50 000 000
Премьера (мир): 27 января 2014
Премьера (РФ): 12 марта 2014,
«Парадиз»

Релиз на Blu-Ray: 1 июля 2014,
«Парадиз / Активижен»,
...

Релиз на DVD: 1 июля 2014,
«Парадиз / Активижен»,
...






pb.wtf



Скачать Воздушный маршал через торрент https://pic.kartinco.top/new/img/2014-08/09/q1yh40zgcav64c5xjw69hgc6u.png Скачать, смотреть онлайн Воздушный маршал бесплантно в хорошем качестве Описание: Межконтинентальный авиарейс. Билл Маркс, воздушный маршал, который обеспечивает безопасность пассажиров, получает сообщения с ... 10 10 11
Info! Золотая раздача, скачанное не засчитывается.
Торрент: Зарегистрирован [2014-07-25 01:50] · скачан: 309 раз
Статус: √ проверено
Размер: 14.1 GB
Как cкачать? Как скачать Воздушный маршал через торрент | UTorrent



Последний раз редактировалось: Seedtank (2014-08-09 16:46), всего редактировалось 2 раз(а)

28-11-2019 20:33  

Отключить всю рекламу на сайте

25-07-2014 01:54 Воздушный маршал Скачать торрент  

Релиз подготовлен специально для piratbit.cc
Вшита обложка.
pb.wtf



25-07-2014 11:30 Воздушный маршал Скачать торрент  

Можно посмотреть, но Лиам Нисон может больше.pb.wtf



29-07-2014 19:34 Воздушный маршал Скачать торрент  

Seedtank писал(а):

Релиз подготовлен специально для piratbit.cc
Вшита обложка.

Filimi rulit, superpb.wtf



31-07-2014 20:26 Воздушный маршал Скачать торрент  

Хороший фильм!Смотреть всем)pb.wtf



    Дорогой пользователь! Огромная просьба, поблагодарите релизера, оцените раздачу и оставьте свои комментарий, если Вы скачали Воздушный маршал через торрент бесплатно!
    Комментировать посты могут только пользователи прошедшие не сложную регистрацию
    Показать сообщения:    

    Воздушный маршал через торрент
    Скачать бесплатно Воздушный маршал
    Воздушный маршал скачать торрент
    Воздушный маршал смотреть онлайн
    Cкачать фильм Воздушный маршал бесплатно
    Воздушный маршал скачать торрент в хорошем качестве
    Воздушный маршал смотреть онлайн бесплатно в хорошем качестве


    Вы не можете начинать темы
    Вы не можете отвечать на сообщения
    Вы не можете редактировать свои сообщения
    Вы не можете удалять свои сообщения
    Вы не можете голосовать в опросах
    Вы не можете прикреплять файлы к сообщениям
    Вы можете скачивать файлы