1 сезон

1 сезон

iTunes

1

КиноПоиск HD

Кинопоиск HD

iTunes

13

1 сезон

RePack

30

Новинка

ВАЖНО

ИГРА 18+

pack

RePack

MK11
pack

Легкие деньги

RePack

jed

RePack

fifa19

RePack

RDR2

RePack

NEED FOR SPEED™ PAYBACK

4 сезон

9 сезон

Бесстыжие 9 сезон

Все сериалы

все сериалы на PB.wtf

RePack

FAR CRY 5
  
Magnet ссылка

Пункт назначения / Final Destination (Джеймс Вонг) [2000 г., ужасы, фантастика, триллер, детектив, HDRip-AVC, Дубляж, [Лицензия] pb.wtf

Скачать  

26-07-2014 02:10 Пункт назначения Скачать торрент  

Пункт назначения / Final Destination
Год выпуска: 2000
Жанр: ужасы, фантастика, триллер, детектив
Перевод: Дубляж, [Лицензия]
Продолжительность: 98 мин. / 01:38
Режиссер: Джеймс Вонг
Продюссер: Глен Морган, Крэйг Перри, Уоррен Зайд
Сценарий: Джеффри Реддик, Глен Морган, Джеймс Вонг
Бюджет: $23 000 000
Премьера в мире: 16 марта 2000
IMDB 6.80 (145 594)

В ролях: Девон Сава, Эли Лартер, Керр Смит, Кристен Клоук, Дэниэл Робак, Роджер Гуэнвёр Смит, Чэд Донелла, Шонн Уильям Скотт, Тони Тодд, Аманда Детмер, Владимир Маслаков, Елена Ивасишина, Константин Хабенский, Андрей Тенетко, Станислав Концевич
Описание: Алекс летит развлекаться со всем классом в Париж на 10 дней. Отец говорит, что детство кончилось. В аэропорту он узнает, что время вылета совпадает с его днем рождения. Потом, повинуясь плохому предчувствию, Алекс покидает самолет вместе с еще семью людьми. И тут взрывается их самолет...Но позже оставшиеся в живых пассажиры гибнут один за другим, и Алекс понимает: смерть не обманешь — это только отсрочка...
Качество: HDRip-AVC
Формат: MKV
Видео кодек: AVC
Аудио кодек: AC3
Видео: (1 280х720), 3 206 Kbps, 23.976 fps,
Аудио#1: AC-3, 320 Kbps (Rus) 48.0 KHz [Дублированный]
Субтитры: русские, английские
Автор рипа: Diavol

Код:

---[Information] [25.07.2014 1:40:03] x264 [info]: frame I:1116  Avg QP:16.51  size: 83965  PSNR Mean Y:47.43 U:52.47 V:53.57 Avg:48.45 Global:48.00
---[Information] [25.07.2014 1:40:03] x264 [info]: frame P:31494 Avg QP:19.24  size: 29121  PSNR Mean Y:45.56 U:53.10 V:54.20 Avg:46.64 Global:46.05
---[Information] [25.07.2014 1:40:03] x264 [info]: frame B:108417 Avg QP:20.97  size: 12405  PSNR Mean Y:44.89 U:52.30 V:53.52 Avg:46.05 Global:45.46
---[Information] [25.07.2014 1:40:03] x264 [info]: consecutive B-frames:  2.7%  3.3%  7.2% 21.0% 15.5% 40.0%  6.6%  2.4%  1.3%

Код:

General
Complete name                    : D:\Final Destination.2000.HDRip-AVC.(1280x720).By Diavol.mkv
Format                           : Matroska
File size                        : 2.41 GiB
Duration                         : 1h 38mn
Overall bit rate                 : 3 526 Kbps
Movie name                       : Пункт назначения.2000
Encoded date                     : UTC 2014-07-24 22:22:02
Writing application              : mkvmerge v6.8.0 ('Theme for Great Cities') 64bit built on Mar  2 2014 21:34:26
Writing library                  : libebml v1.3.0 + libmatroska v1.4.1

Video
ID                               : 1
Format                           : AVC
Format/Info                      : Advanced Video Codec
Format profile                   : High@L4.1
Format settings, CABAC           : Yes
Format settings, ReFrames        : 9 frames
Muxing mode                      : Container profile=Unknown@4.1
Codec ID                         : V_MPEG4/ISO/AVC
Duration                         : 1h 38mn
Bit rate                         : 3 206 Kbps
Width                            : 1 280 pixels
Height                           : 720 pixels
Display aspect ratio             : 16:9
Frame rate                       : 23.976 fps
Color space                      : YUV
Chroma subsampling               : 4:2:0
Bit depth                        : 8 bits
Scan type                        : Progressive
Bits/(Pixel*Frame)               : 0.145
Stream size                      : 2.15 GiB (89%)
Writing library                  : x264 core 142 r2431 ac76440
Encoding settings                : cabac=1 / ref=9 / deblock=1:-3:-3 / analyse=0x3:0x113 / me=umh / subme=9 / psy=1 / psy_rd=1.00:0.00 / mixed_ref=1 / me_range=32 / chroma_me=1 / trellis=2 / 8x8dct=1 / cqm=0 / deadzone=21,11 / fast_pskip=1 / chroma_qp_offset=-2 / threads=9 / lookahead_threads=1 / sliced_threads=0 / nr=0 / decimate=1 / interlaced=0 / bluray_compat=0 / constrained_intra=0 / bframes=8 / b_pyramid=2 / b_adapt=2 / b_bias=8 / direct=1 / weightb=1 / open_gop=0 / weightp=2 / keyint=240 / keyint_min=23 / scenecut=40 / intra_refresh=0 / rc_lookahead=40 / rc=2pass / mbtree=1 / bitrate=3206 / ratetol=1.0 / qcomp=0.70 / qpmin=0 / qpmax=69 / qpstep=4 / cplxblur=20.0 / qblur=0.5 / ip_ratio=1.40 / aq=1:1.00
Language                         : English

Audio
ID                               : 2
Format                           : AC-3
Format/Info                      : Audio Coding 3
Mode extension                   : CM (complete main)
Codec ID                         : A_AC3
Duration                         : 1h 38mn
Bit rate mode                    : Constant
Bit rate                         : 320 Kbps
Channel(s)                       : 6 channels
Channel positions                : Front: L C R, Side: L R, LFE
Sampling rate                    : 48.0 KHz
Bit depth                        : 16 bits
Stream size                      : 224 MiB (9%)

Text #1
ID                               : 3
Format                           : UTF-8
Codec ID                         : S_TEXT/UTF8
Codec ID/Info                    : UTF-8 Plain Text
Language                         : Russian

Text #2
ID                               : 4
Format                           : UTF-8
Codec ID                         : S_TEXT/UTF8
Codec ID/Info                    : UTF-8 Plain Text
Language                         : English


скриншот   скриншот   скриншот   скриншот   скриншот  
pb.wtf



Торрент не зареган: Не зарегистрирован ||
Добавлен: 2014-07-26 01:36
Скачано: 355 раз  [ Список скачавших ]
% Раздел Тема Автор DL S | L
3D Фильмы [ 17.18 GB ] Пункт назначения 4 в 3Д / The Final Destination 4 3D [2009 BDRip 1080p] [OverUnder / Вертикальная ] DUB [лицензия] serega768 Скачать
1 | 0
3D Фильмы [ 14.89 GB ] Пункт назначения 5 в 3Д / Final Destination 5 3D [2011 BDRip 1080p] OverUnder / Вертикальная стереопара serega768 Скачать
1 | 0
Фильмы [HD 720p, 1080p] (Хороший звук DUB, MVO) [ 3.78 GB ] Пункт назначения 5 / Final Destination 5 [2011 BDRip 1080p HEVC ] Мичман37 Скачать
1 | 0
Фильмы [HD 720p, 1080p] (Хороший звук DUB, MVO) [ 3.56 GB ] Пункт назначения 4 / The Final Destination [2009 BDRip 1080p HEVC ] Мичман37 Скачать
1 | 0
Фильмы [HD 720p, 1080p] (Хороший звук DUB, MVO) [ 3.88 GB ] Пункт назначения 3 / Final Destination 3 [2006 BDRip 1080p HEVC ] Мичман37 Скачать
1 | 0
Фильмы [HD 720p, 1080p] (Хороший звук DUB, MVO) [ 3.83 GB ] Пункт назначения 2 / Final Destination 2 [2003 BDRip 1080p HEVC ] Мичман37 Скачать
1 | 0
Фильмы [HD 720p, 1080p] (Хороший звук DUB, MVO) [ 3.77 GB ] Пункт назначения / Final Destination [2000 BDRip 1080p HEVC ] Мичман37 Скачать
1 | 0

28-11-2019 20:33  

Отключить всю рекламу на сайте

    Дорогой пользователь! Огромная просьба, поблагодарите релизера, оцените раздачу и оставьте свои комментарий, если Вы скачали Пункт назначения через торрент бесплатно! Внесите свою лепту в развитие PiratBit!
    Комментировать посты могут только пользователи прошедшие не сложную регистрацию
    Показать сообщения:    

    Пункт назначения через торрент
    Скачать бесплатно Пункт назначения
    Пункт назначения скачать торрент
    Пункт назначения смотреть онлайн
    Cкачать фильм Пункт назначения бесплатно
    Пункт назначения скачать торрент в хорошем качестве
    Пункт назначения смотреть онлайн бесплатно в хорошем качестве


    Вы не можете начинать темы
    Вы не можете отвечать на сообщения
    Вы не можете редактировать свои сообщения
    Вы не можете удалять свои сообщения
    Вы не можете голосовать в опросах
    Вы не можете прикреплять файлы к сообщениям
    Вы можете скачивать файлы