Ссылка на приватное зеркало нашего сайта всего за 1$. Внимание количество ограничено!!!

2 сезон

iTunes

1 сезон

1

2 сезон

2 сезон

iTunes

1 сезон

RePack

30

Новинка

ВАЖНО

ИГРА 18+

pack

RePack

MK11
pack

Забери бонус

RePack

jed

!!Акция!!

Alien_Rage

RePack

fifa19

RePack

Assassins Creed: Odyssey

RePack

NEED FOR SPEED™ PAYBACK

4 сезон

9 сезон

Бесстыжие 9 сезон

Все сериалы

все сериалы на PB.wtf

RePack

FAR CRY 5
  

Пересекая черту / Crossing Lines / Сезон: 1 / Серии 1-10 из 10 (Дэниэл Персивал / Daniel Percival) [2013, Франция, Германия, США, боевик, драма, криминал, WEB-DLRip, Любительский многоголосый закадровый (Viruse Project) pb.wtf

Пересекая черту через торрент pb.wtf

Размер: 5.09 GB | Добавлен: 6 лет 4 мес. назад | Торрент скачан:154 раза
Скачать  

26-07-2014 06:43 Пересекая черту Скачать торрент  

Пересекая черту / Crossing Lines


  • Год выпуска: 2013
  • Страна: Франция, Германия, США
  • Жанр: боевик, драма, криминал
  • Продолжительность: 00:42:43
  • Перевод: Любительский многоголосый закадровый (Viruse Project)

  • Режиссер: Дэниэл Персивал / Daniel Percival, Михаэль Веннинг / Michael Wenning, Дьярмуид Лоуренс / Diarmuid Lawrence
  • В ролях:

    Уильям Фихтнер (Carl Hickman), Дональд Сазерленд (Michel Dorn), Марк Лавуан (Louis Daniel), Ричард Флуд (Tommy McConnel), Габриэлла Пессион (Eva Vittoria), Том Влашиха (Sebastian Berger), Эльза Молльен (Rebecca Daniel), Мун Дайлли (Anne-Marie San), Клара Иссова (Shari), Марк Барбе (Commisaire Leveaux), Лара Росси (Arabela Seeger), Марко Бонини (Lorenzo Vincente)

  • Описание:
    С формированием Европейского Союза для упрощения торговли и путешествий были открыты границы. Однако это имело и другое последствие: взрыв международной преступности. При таких условиях преступники могут сбегать в любую страну и спрятаться в любом городе. В мире, где самые опасные персоны могут пересекать столько границ, элитное спецподразделение, каждый член которого избирался исходя из его особенных навыков, должно провести под этим черту.
  • Рейтинг:



  • Качество: WEB-DLRip
  • Формат: :AVI
  • Видео кодек: XviD
  • Аудио кодек: MP3
  • Видео: 720x400 (16:9), 1503 kbps, 23,976 fps, 0,218 bpp
  • Аудио: 2.0 / 48 kHz / 192 kbps
  • Релиз от: GEKADOL

    Код:

    Внимание! Раздача ведётся путём добавления новых серий; при каждом добавлении создаётся новый торрент. Чтобы начать докачку новой серии, пользователям необходимо сделать следующее:
    (1) остановить скачивание,
    (2) удалить старый торрент у себя из клиента (старые серии удалять не надо),
    (3) скачать новый торрент и запустить его у себя в клиенте вместо старого, при этом указать клиенту путь в старую папку куда и должно происходить скачивание новых серий.
    Ваш клиент при этом должен произвести хеширование (проверку) старой папки (если не производит сам - помогите ему сделать это), и будет докачивать только те серии которых у вас ещё нет. Старые серии при этом не удаляются, а продолжают раздаваться!
    Eсли вы уже удалили старые серии, то предотвратить повторную закачку старых серий можно, отжав галочку в соответсвующих местах при запуске нового торрента. По возможности, желательно не удалять старые серии как можно дольше чтобы релизёр не столько продолжал раздавать старые серии, а смог сконцентрироваться на новых.


    Код:

    General
    Complete name                            : G:\Crossing.Lines.S01.ViruseProject\Crossing.Lines.S01E10.ViruseProject.avi
    Format                                   : AVI
    Format/Info                              : Audio Video Interleave
    File size                                : 521 MiB
    Duration                                 : 42mn 43s
    Overall bit rate                         : 1 705 Kbps
    Writing application                      : VirtualDubMod 1.5.10.2 (build 2540/release)
    Writing library                          : VirtualDubMod build 2540/release

    Video
    ID                                       : 0
    Format                                   : MPEG-4 Visual
    Format profile                           : Advanced Simple@L5
    Format settings, BVOP                    : 1
    Format settings, QPel                    : No
    Format settings, GMC                     : No warppoints
    Format settings, Matrix                  : Default (MPEG)
    Codec ID                                 : XVID
    Codec ID/Hint                            : XviD
    Duration                                 : 42mn 43s
    Bit rate                                 : 1 504 Kbps
    Width                                    : 720 pixels
    Height                                   : 400 pixels
    Display aspect ratio                     : 16:9
    Frame rate                               : 23.976 fps
    Color space                              : YUV
    Chroma subsampling                       : 4:2:0
    Bit depth                                : 8 bits
    Scan type                                : Progressive
    Compression mode                         : Lossy
    Bits/(Pixel*Frame)                       : 0.218
    Stream size                              : 459 MiB (88%)
    Writing library                          : XviD 1.2.1 (UTC 2008-12-04)

    Audio
    ID                                       : 1
    Format                                   : MPEG Audio
    Format version                           : Version 1
    Format profile                           : Layer 3
    Codec ID                                 : 55
    Codec ID/Hint                            : MP3
    Duration                                 : 42mn 43s
    Bit rate mode                            : Constant
    Bit rate                                 : 192 Kbps
    Channel(s)                               : 2 channels
    Sampling rate                            : 48.0 KHz
    Compression mode                         : Lossy
    Stream size                              : 58.7 MiB (11%)
    Alignment                                : Split accross interleaves
    Interleave, duration                     : 42 ms (1.00 video frame)
    Interleave, preload duration             : 500 ms


    Скриншоты:

    Раздача ведётся путём добавления новых серий. Добавлена 10 серия (26.07.2014).Просьба перекачать торрент файл.

    pb.wtf



  • Скачать Пересекая черту через торрент http://i65.fastpic.ru/big/2014/0726/49/62eac33b7f82881a2e5e7fa81bbf8349.jpg Скачать фильм Пересекая черту через торрент бесплантно в хорошем качестве Описание: С формированием Европейского Союза для упрощения торговли и путешествий были открыты границы. Однако это имело и другое ... 10 10 2
    Торрент: Зарегистрирован [2014-07-26 06:44] · скачан: 154 раз
    Статус: √ проверено
    Размер: 5.09 GB
    Как cкачать? Как скачать Пересекая черту через торрент | qTorrent



    Последний раз редактировалось: GEKADOL (2014-07-26 07:51), всего редактировалось 1 раз

    28-11-2019 20:33  

    Отключить всю рекламу на сайте

      Дорогой пользователь! Огромная просьба, поблагодарите релизера, оцените раздачу и оставьте свои комментарий, если Вы скачали Пересекая черту через торрент бесплатно! Внесите свою лепту в развитие PiratBit!
      Комментировать посты могут только пользователи прошедшие не сложную регистрацию
      Показать сообщения:    

      Пересекая черту через торрент
      Скачать бесплатно Пересекая черту
      Пересекая черту скачать торрент
      Пересекая черту смотреть онлайн
      Cкачать фильм Пересекая черту бесплатно
      Пересекая черту скачать торрент в хорошем качестве
      Пересекая черту смотреть онлайн бесплатно в хорошем качестве


      Вы не можете начинать темы
      Вы не можете отвечать на сообщения
      Вы не можете редактировать свои сообщения
      Вы не можете удалять свои сообщения
      Вы не можете голосовать в опросах
      Вы не можете прикреплять файлы к сообщениям
      Вы можете скачивать файлы