Присоединяйтесь к нам в Telegram!, здесь всегда актуальный адрес сайта, оперативная поддержка и многое другое!!

>

5.9

iTunes

7.4

iTunes

9.4

1 сезон

1

7.4

2 сезон

7.2

iTunes

7.3

1 сезон

13

6.1

iTunes

8.3

GOG

30

ULTIMATE

pack

9.9

Лицензия

ВАЖНО

ИГРА 18+

pack

7.3

RePack

MK11

7.7

RePack

jed

7.8

RePack

fifa19

8.5

RePack

RDR2

RePack

NEED FOR SPEED™ PAYBACK

5 сезон

9 сезон

Бесстыжие 9 сезон

Все сериалы

все сериалы на PB.wtf

RePack

FAR CRY 5

Anonymous, доброе утро, мы катастрофически не успеваем собрать деньги на оплату серверов, помогите нам пожалуйста 5,10,15р., для нас важна любая помощь . В качестве благодарности мы отключим Вам всю рекламу на сайте (укажите свой ник в строку Ваше имя)!

×
  
Magnet ссылка

Подборка клипов Wet Wet Wet / Wet Wet Wet - The Greatest Hits and More [2004 г., Pop, DVDRip] pb.wtf

Подборка клипов Wet Wet Wet через торрент pb.wtf

Размер: 2 GB | Добавлен: 7 лет 4 мес. назад | Торрент скачан:14 раз
Смотреть онлайн Подборка клипов Wet Wet Wet | Скачать    Ребята, помогите собрать деньги на оплату серверов!!!

26-07-2014 16:45 Подборка клипов Wet Wet Wet Скачать торрент  

Подборка клипов Wet Wet Wet / Wet Wet Wet - The Greatest Hits and More
Год выпуска: 2004
Страна: USA Mercury Records, Universal
Жанр: Pop
Продолжительность: 01:42:37
Перевод: не требуется

В ролях: Wet Wet Wet

Описание: Одна из наиболее ярких и популярных команд 80-х - 90-х, - Wet Wet Wet! Уже совсем было распавшиеся, нашли в себе силы продолжить совместный творческий путь. Отпразновать свое воссоедение они решили выходом сборника лучших вещей "The Greatest Hits and More" и паралельным выпуском DVD диска с подборкой видеоклипов. В памяти международной армии меломанов останутся, прежде всего, как создатели хита "Love is All Around". Песня впервые прозвучала в знаменитом английском фильме "Four Weddings and a Funeral" ("Четыре свадьбы и одни похороны"). По информации с официального сайта весь материал представлен в ремастированном виде.
01. Wishing I Was Lucky
02. Sweet Little Mystery
03. Angel Eyes
04. Temptation
05. With A Little Help From My Friends
06. Sweet Surrender
07. Broke Away
08. Hold Back The River
09. Stay With Me Heartache
10. Make It Tonight
11. Put The Light On
12. Goodnight Girl
13. More Than Love
14. Lip Service
15. Shed A Tear
16. Cold, Cold Heart
17. Love Is All Around
18. Julia Says
19. Don't Want To Forgive Me Now
20. Somewhere Somehow
21. She's All On My Mind
22. Morning
23. If I Never See You Again
24. Strange
25. Maybe I'm In Love
26. Yesterday
Качество: DVDRip
Формат: AVI
Видео кодек: XviD
Аудио кодек: AC3
Видео: Xvid 608x464, 25.00fps, 2 390 Kbps
Аудио#1: Dolby AC3, 48000Hz, stereo, 256kbps Английский
Аудио#2: MPEG Audio Layer 3, 48000Hz, stereo, 120kbps Английский
Релиз от: lug30





General
Complete name : E:\01 favorit 8\Wet.Wet.Wet.The.Greatest.Hits.And.More.2004.avi
Format : AVI
Format/Info : Audio Video Interleave
Format profile : OpenDML
File size : 2.00 GiB
Duration : 1h 42mn
Overall bit rate mode : Variable
Overall bit rate : 2 785 Kbps
Writing application : VirtualDubMod 1.5.4.1 (build 2178/release)
Writing library : VirtualDubMod build 2178/release

Video
ID : 0
Format : MPEG-4 Visual
Format profile : Advanced Simple@L5
Format settings, BVOP : 1
Format settings, QPel : No
Format settings, GMC : No warppoints
Format settings, Matrix : Custom
Codec ID : XVID
Codec ID/Hint : XviD
Duration : 1h 42mn
Bit rate : 2 390 Kbps
Width : 608 pixels
Height : 464 pixels
Display aspect ratio : 4:3
Frame rate : 25.000 fps
Color space : YUV
Chroma subsampling : 4:2:0
Bit depth : 8 bits
Scan type : Progressive
Compression mode : Lossy
Bits/(Pixel*Frame) : 0.339
Stream size : 1.71 GiB (86%)
Writing library : XviD 64

Audio #1
ID : 1
Format : AC-3
Format/Info : Audio Coding 3
Mode extension : CM (complete main)
Codec ID : 2000
Duration : 1h 42mn
Bit rate mode : Constant
Bit rate : 256 Kbps
Channel(s) : 2 channels
Channel positions : Front: L R
Sampling rate : 48.0 KHz
Bit depth : 16 bits
Compression mode : Lossy
Stream size : 187 MiB (9%)
Alignment : Split accross interleaves
Interleave, duration : 96 ms (2.41 video frames)
Interleave, preload duration : 96 ms
Language : English

Audio #2
ID : 2
Format : MPEG Audio
Format version : Version 1
Format profile : Layer 3
Mode : Joint stereo
Mode extension : MS Stereo
Codec ID : 55
Codec ID/Hint : MP3
Duration : 1h 42mn
Bit rate mode : Variable
Bit rate : 120 Kbps
Nominal bit rate : 128 Kbps
Channel(s) : 2 channels
Sampling rate : 48.0 KHz
Compression mode : Lossy
Stream size : 87.9 MiB (4%)
Alignment : Aligned on interleaves
Interleave, duration : 24 ms (0.60 video frame)
Interleave, preload duration : 508 ms
Writing library : LAME3.98r
Encoding settings : -m j -V 4 -q 2 -lowpass 17 --abr 128
Language : English

pb.wtf



Скачать Подборка клипов Wet Wet Wet через торрент https://pic1.kartinco.top/images/61/hjtnv.jpg Скачать, смотреть онлайн Подборка клипов Wet Wet Wet бесплантно в хорошем качестве Описание: Одна из наиболее ярких и популярных команд 80-х - 90-х, - Wet Wet Wet! Уже совсем было распавшиеся, нашли в себе силы продолжить ... 9.5 10 4
Info! Серебряная раздача, засчитывается только 50% скачанного.
Торрент: Зарегистрирован [2014-07-26 16:45] · скачан: 14 раз
Статус: √ проверено
Размер: 2 GB
Как cкачать? Как скачать Подборка клипов Wet Wet Wet через торрент | UTorrent

28-11-2019 20:33  

Отключить всю рекламу на сайте

    Дорогой пользователь! Огромная просьба, поблагодарите релизера, оцените раздачу и оставьте свои комментарий, если Вы скачали Подборка клипов Wet Wet Wet через торрент бесплатно!
    Комментировать посты могут только пользователи прошедшие не сложную регистрацию
    Показать сообщения:    

    Подборка клипов Wet Wet Wet через торрент
    Скачать бесплатно Подборка клипов Wet Wet Wet
    Подборка клипов Wet Wet Wet скачать торрент
    Подборка клипов Wet Wet Wet смотреть онлайн
    Cкачать фильм Подборка клипов Wet Wet Wet бесплатно
    Подборка клипов Wet Wet Wet скачать торрент в хорошем качестве
    Подборка клипов Wet Wet Wet смотреть онлайн бесплатно в хорошем качестве


    Вы не можете начинать темы
    Вы не можете отвечать на сообщения
    Вы не можете редактировать свои сообщения
    Вы не можете удалять свои сообщения
    Вы не можете голосовать в опросах
    Вы не можете прикреплять файлы к сообщениям
    Вы можете скачивать файлы