Ссылка на приватное зеркало нашего сайта всего за 1$. Внимание количество ограничено!!!

2 сезон

iTunes

1 сезон

1

2 сезон

2 сезон

iTunes

1 сезон

RePack

30

Ultimate

ВАЖНО

ИГРА 18+

pack

RePack

MK11
pack

Забери бонус

RePack

jed

!!Акция!!

Alien_Rage

RePack

fifa19

RePack

Assassins Creed: Odyssey

RePack

NEED FOR SPEED™ PAYBACK

4 сезон

9 сезон

Бесстыжие 9 сезон

Все сериалы

все сериалы на PB.wtf

RePack

FAR CRY 5
  

Авария / Collision / Сезон:1 / Серии: 1-5 из 5 (Марк Эванс) [2009 г., Детектив, драма, TVRip] VO (KvadratMalevicha) pb.wtf

Авария через торрент pb.wtf

Размер: 3.1 GB | Добавлен: 6 лет 4 мес. назад | Торрент скачан:48 раз
Скачать  

26-07-2014 18:07 Авария Скачать торрент  

Авария / CollisionГод выпуска: 2009
Страна: Великобритания Greenlit Productions Ltd
Жанр: Детектив, драма
Продолжительность: 5 x ~ 00:45:00
Перевод: Профессиональный одноголосый
Релиз-группа: KvadratMalevicha
Перевод: Oghra
Озвучка: MaxMeister

Режиссер: Марк Эванс
Продюссер: Джилл Грин, Ив Гутьеррез, Катрин Олдфилд
Сценарий: Энтони Хоровиц, Майкл А. Уокер
Премьера в мире: 11 октября 2009

В ролях: Дуглас Хеншэлл, Дин Леннокс Келли, Люси Гриффитс, Филип Дэвис, Сильвия Симс, Пол МакГэнн, Мэтт Райан, Кейт Эшфилд, Дэвид Бамбер, Джо Вудкок, Клэр Рашбрук, Кристофер Вилльерс, Жослин Жи Эсьён, Кристофер Фулфорд, Жан Френсис, Эндрю Брук, Крэйг Келли, Ричард Харингтон, Колин МакФарлэйн, Анвар Линч, Ленора Кричлоу, Фрэнк Харпер, Зои Телфорд, Николас Фэррел, Брайан Петтифер, Шон Прендергаст, Виктория Уикс, Рэймонд Сойер, Николас Мосс, Ди Ботчер, Пано Масти, Кэролайн Троубридж, Мик Форд, Рену Сетна, Пип Торренс, Джо Весткотт, Грант Иббс, Дин Эштон, Альма Эно, Дермот Кини, Джон Иоанну, Мэттью Гравель, Бен Кромптон, Ниа Робертс, Грегор Трутер, Николас Гекс, Линда Спурье
Описание: Произошла крупная автомобильная авария, повлекшая многочисленные жертвы. Пострадали многие известные люди. Судьбы героев причудливо переплетаются, пока они не оказываются в том месте, и в то время, когда и происходит ужасная авария. Простое расследование причин аварии приводит к поразительным открытиям - за каждой судьбой скрыта какая-то тайна, будь то подкуп, растрата, хищение документов и даже убийство. Нам предстоит узнать историю каждого из них, чтобы вместе с авторами сериала распутать этот сложный клубок.
Качество: TVRip
Формат: AVI
Видео кодек: XviD
Аудио кодек: AC3
Видео: Xvid 720x400, 25.00fps, 1 489 Kbps
Аудио: Dolby AC3, 48000Hz, stereo, 384kbps
Релиз от: KvadratMalevicha





General
Complete name : E:\01 favorit 8\Collision Season 1 KM\Collision.S01E01.[KvadratMalevicha.ru].DD2.0.rus.avi
Format : AVI
Format/Info : Audio Video Interleave
File size : 624 MiB
Duration : 46mn 18s
Overall bit rate : 1 883 Kbps
Writing application : VirtualDubMod 1.5.10.2 (build 2540/release)
Writing library : VirtualDubMod build 2540/release

Video
ID : 0
Format : xvid
Codec ID : xvid
Duration : 46mn 18s
Bit rate : 1 489 Kbps
Width : 720 pixels
Height : 400 pixels
Display aspect ratio : 16:9
Frame rate : 25.000 fps
Bits/(Pixel*Frame) : 0.207
Stream size : 493 MiB (79%)

Audio
ID : 1
Format : AC-3
Format/Info : Audio Coding 3
Mode extension : CM (complete main)
Codec ID : 2000
Duration : 46mn 18s
Bit rate mode : Constant
Bit rate : 384 Kbps
Channel(s) : 2 channels
Channel positions : Front: L R
Sampling rate : 48.0 KHz
Bit depth : 16 bits
Compression mode : Lossy
Stream size : 127 MiB (20%)
Alignment : Split accross interleaves
Interleave, duration : 40 ms (1.00 video frame)
Interleave, preload duration : 500 ms

pb.wtf



Скачать Авария через торрент http://pic.kartinco.top/images/6/uqiqd.jpg Скачать фильм Авария через торрент бесплантно в хорошем качестве Описание: Произошла крупная автомобильная авария, повлекшая многочисленные жертвы. Пострадали многие известные люди. Судьбы героев ... 9.8 10 5
Торрент: Зарегистрирован [2014-07-26 18:07] · скачан: 48 раз
Статус: √ проверено
Размер: 3.1 GB
Как cкачать? Как скачать Авария через торрент | qTorrent

28-11-2019 20:33  

Отключить всю рекламу на сайте

    Дорогой пользователь! Огромная просьба, поблагодарите релизера, оцените раздачу и оставьте свои комментарий, если Вы скачали Авария через торрент бесплатно! Внесите свою лепту в развитие PiratBit!
    Комментировать посты могут только пользователи прошедшие не сложную регистрацию
    Показать сообщения:    

    Авария через торрент
    Скачать бесплатно Авария
    Авария скачать торрент
    Авария смотреть онлайн
    Cкачать фильм Авария бесплатно
    Авария скачать торрент в хорошем качестве
    Авария смотреть онлайн бесплатно в хорошем качестве


    Вы не можете начинать темы
    Вы не можете отвечать на сообщения
    Вы не можете редактировать свои сообщения
    Вы не можете удалять свои сообщения
    Вы не можете голосовать в опросах
    Вы не можете прикреплять файлы к сообщениям
    Вы можете скачивать файлы