2 сезон

iTunes

1 сезон

1

iTunes

iTunes

iTunes

1 сезон

RePack

30

ИГРА 18+

pack

ВАЖНО

!!Акция!!

Alien_RageХит недели

RePack

MK11
pack

Забери бонус

RePack

jed

!!Акция!!

Alien_Rage

RePack

fifa19

RePack

Assassins Creed: Odyssey

RePack

NEED FOR SPEED™ PAYBACK

4 сезон

9 сезон

Бесстыжие 9 сезон

Все сериалы

все сериалы на PB.wtf

RePack

FAR CRY 5
  

Про жену, мечту и еще одну… (Александр Поженский) [2013, Россия, драма, мелодрама, комедия, WEBDL 1080p-AVC] pb.wtf

Про жену, мечту и еще одну… через торрент pb.wtf

Размер: 2.13 GB | Добавлен: 6 лет 3 мес. назад | Торрент скачан:599 раз
Скачать  

27-07-2014 02:16 Про жену, мечту и еще одну… Скачать торрент  

Про жену, мечту и еще одну…


  • Год выпуска: 2013
  • Страна: Россия
  • Жанр: драма, мелодрама, комедия
  • Продолжительность: 01:11:33
  • Перевод: Не требуется

  • Режиссер: Александр Поженский
  • В ролях:

    Константин Юшкевич, Александра Куликова, Александр Поженский

  • Описание:
    9 мая 2013 года. Свидание. Мария и Васин не подозревают, что в параллельном мире у них есть другая жизнь. Чудесная жизнь, где удачно сложилось то, чего им вроде бы не хватает сегодня...
  • Рейтинг:



  • Качество: WEBDL 1080p-AVC
  • Формат: :MKV
  • Видео кодек: AVC
  • Аудио кодек: AC3
  • Видео: 1920x810 (2.35:1), 4000 kbps, 50 fps, 0,051 bpp
  • Аудио: 2.0 / 48 kHz / 256 kbps / 16 bit
  • Релиз от: GEKADOL

    Код:

    General
    Unique ID                                : 181404616303796099486041196542507779434 (0x8879421D42490237A3F0015795DE856A)
    Complete name                            : G:\Pro.jenu...1080p.MegaPeer.mkv
    Format                                   : Matroska
    Format version                           : Version 4 / Version 2
    File size                                : 2.13 GiB
    Duration                                 : 1h 11mn
    Overall bit rate                         : 4 258 Kbps
    Encoded date                             : UTC 2014-07-26 18:44:12
    Writing application                      : mkvmerge v6.7.0 ('Back to the Ground') 64bit built on Jan  8 2014 15:10:52
    Writing library                          : libebml v1.3.0 + libmatroska v1.4.1

    Video
    ID                                       : 1
    Format                                   : AVC
    Format/Info                              : Advanced Video Codec
    Format profile                           : High@L4.0
    Format settings, CABAC                   : Yes
    Format settings, ReFrames                : 3 frames
    Codec ID                                 : V_MPEG4/ISO/AVC
    Duration                                 : 1h 11mn
    Bit rate                                 : 4 000 Kbps
    Width                                    : 1 920 pixels
    Height                                   : 810 pixels
    Display aspect ratio                     : 2.35:1
    Frame rate                               : 50.000 fps
    Original frame rate                      : 25.000 fps
    Color space                              : YUV
    Chroma subsampling                       : 4:2:0
    Bit depth                                : 8 bits
    Scan type                                : Progressive
    Bits/(Pixel*Frame)                       : 0.051
    Stream size                              : 1.96 GiB (92%)
    Writing library                          : x264 core 142 r2389 956c8d8
    Encoding settings                        : cabac=1 / ref=3 / deblock=1:0:0 / analyse=0x3:0x133 / me=umh / subme=7 / psy=1 / psy_rd=1.00:0.00 / mixed_ref=1 / me_range=32 / chroma_me=1 / trellis=2 / 8x8dct=1 / cqm=0 / deadzone=21,11 / fast_pskip=1 / chroma_qp_offset=-2 / threads=12 / lookahead_threads=2 / sliced_threads=0 / nr=0 / decimate=1 / interlaced=0 / bluray_compat=0 / constrained_intra=0 / bframes=0 / weightp=0 / keyint=75 / keyint_min=26 / scenecut=40 / intra_refresh=0 / rc_lookahead=50 / rc=2pass / mbtree=0 / bitrate=4000 / ratetol=1.0 / qcomp=0.20 / qpmin=10 / qpmax=51 / qpstep=4 / cplxblur=20.0 / qblur=0.5 / vbv_maxrate=5000 / vbv_bufsize=5000 / nal_hrd=none / filler=0 / ip_ratio=1.40 / aq=1:1.00
    Default                                  : Yes
    Forced                                   : No
    Color primaries                          : BT.709-5, BT.1361, IEC 61966-2-4, SMPTE RP177
    Transfer characteristics                 : BT.709-5, BT.1361
    Matrix coefficients                      : BT.709-5, BT.1361, IEC 61966-2-4 709, SMPTE RP177

    Audio
    ID                                       : 2
    Format                                   : AC-3
    Format/Info                              : Audio Coding 3
    Mode extension                           : CM (complete main)
    Codec ID                                 : A_AC3
    Duration                                 : 1h 11mn
    Bit rate mode                            : Constant
    Bit rate                                 : 256 Kbps
    Channel(s)                               : 2 channels
    Channel positions                        : Front: L R
    Sampling rate                            : 48.0 KHz
    Bit depth                                : 16 bits
    Compression mode                         : Lossy
    Stream size                              : 131 MiB (6%)
    Default                                  : Yes
    Forced                                   : No


    Скриншоты:
    скриншот   скриншот   скриншот   скриншот   скриншот   скриншот  


    pb.wtf



  • Скачать Про жену, мечту и еще одну… через торрент http://pic.kartinco.top/new/img/2014-07/27/fiaeocpgas5lstd28iktwn69x.jpg Скачать фильм Про жену, мечту и еще одну… через торрент бесплантно в хорошем качестве Описание: 9 мая 2013 года. Свидание. Мария и Васин не подозревают, что в параллельном мире у них есть другая жизнь. Чудесная жизнь, где ... 8.6 10 11
    Info! Золотая раздача, скачанное не засчитывается.
    Торрент: Зарегистрирован [2014-07-27 02:16] · скачан: 599 раз
    Статус: √ проверено
    Размер: 2.13 GB
    Как cкачать? Как скачать Про жену, мечту и еще одну… через торрент | qTorrent



    Последний раз редактировалось: GEKADOL (2014-07-27 05:03), всего редактировалось 2 раз(а)

    28-11-2019 20:33  

    Отключить всю рекламу на сайте

    27-07-2014 04:11 Про жену, мечту и еще одну… Скачать торрент  

    в "Эронической полукомедии...?"-грамотеи,иху мать! rofl кто постер лепил-казнить на фиг!!!pb.wtf



    27-07-2014 05:05 Про жену, мечту и еще одну… Скачать торрент  

    Stopper68 писал(а):

    в "Эронической полукомедии...?"-грамотеи,иху мать! rofl кто постер лепил-казнить на фиг!!!

    pb.wtf



    27-07-2014 06:26 Про жену, мечту и еще одну… Скачать торрент  

    Эроничная полукомедия - это не ошибка,а замысел режиссера. Смесь иронии и эротики!pb.wtf



    29-07-2014 09:34 Про жену, мечту и еще одну… Скачать торрент  

    просмотр женщинами (жёнами) обязателен ! малость не догнал изменяет (выручает) по жизни ли жена ?! сильный фильм. не комедия.pb.wtf



      Дорогой пользователь! Огромная просьба, поблагодарите релизера, оцените раздачу и оставьте свои комментарий, если Вы скачали Про жену, мечту и еще одну… через торрент бесплатно! Внесите свою лепту в развитие PiratBit!
      Комментировать посты могут только пользователи прошедшие не сложную регистрацию
      Показать сообщения:    

      Про жену, мечту и еще одну… через торрент
      Скачать бесплатно Про жену, мечту и еще одну…
      Про жену, мечту и еще одну… скачать торрент
      Про жену, мечту и еще одну… смотреть онлайн
      Cкачать фильм Про жену, мечту и еще одну… бесплатно
      Про жену, мечту и еще одну… скачать торрент в хорошем качестве
      Про жену, мечту и еще одну… смотреть онлайн бесплатно в хорошем качестве


      Вы не можете начинать темы
      Вы не можете отвечать на сообщения
      Вы не можете редактировать свои сообщения
      Вы не можете удалять свои сообщения
      Вы не можете голосовать в опросах
      Вы не можете прикреплять файлы к сообщениям
      Вы можете скачивать файлы