Ссылка на приватное зеркало нашего сайта всего за 1$. Внимание количество ограничено!!!

2 сезон

iTunes

1 сезон

1

2 сезон

2 сезон

iTunes

1 сезон

RePack

30

Ultimate

ВАЖНО

ИГРА 18+

pack

RePack

MK11
pack

Забери бонус

RePack

jed

!!Акция!!

Alien_Rage

RePack

fifa19

RePack

Assassins Creed: Odyssey

RePack

NEED FOR SPEED™ PAYBACK

4 сезон

9 сезон

Бесстыжие 9 сезон

Все сериалы

все сериалы на PB.wtf

RePack

FAR CRY 5
  

Влacть в ночном городе / Power / Сезон: 1 / Серии: 1-8 из 8 (Джон Дэвид Коулз, Энтони Хемингуэй, Джордж Тиллман мл.) [2014 г.,Драма, Криминал, HDTVRip]MVO (Amedia) pb.wtf

Влacть в ночном городе через торрент pb.wtf

Качают: 1 [ 0 KB/s ]
Размер: 5.14 GB | Добавлен: 6 лет 3 мес. назад | Торрент скачан:519 раз
Скачать  

28-07-2014 18:36 Влacть в ночном городе Скачать торрент  

Влacть в ночном городе / PowerГод выпуска: 2014
Страна: США, CBS Television Studios
Жанр: Драма, Криминал
Продолжительность: 8 x ~ 00:58:00
Перевод: Профессиональный многоголосый (Amedia)

Режиссер: Джон Дэвид Коулз, Энтони Хемингуэй, Джордж Тиллман мл.
Продюссер: Рэндолл Эмметт, Дэвид Хопвуд, Рэнди Хаггинс
Сценарий: Vladimir Cvetko, Рэнди Хаггинс, Рафаэль Джексон мл.

Премьера в мире: 7 июня 2014

В ролях: Адам Хасс, Лесли Лопес, Винисиус Мачадо, Люси Уолтерс, Луис Рамос, Кэтрин Нардуччи, Шэйн Джонсон, Доминик Колон, Омари Хардвик

Описание: Заработав немало денег на нелегальной торговле наркотиками, хозяин ночного клуба планирует легализировать свой капитал. Он хочет занять достойное место в высших слоях нью-йоркской элиты, куда закрыт доступ всякого рода драгдилерам. Безусловно, деньги и Влacть в ночном городе неразделимые понятия, но нужна ещё определенная респектабельность и репутация, позволяющие вполне официально управлять городом и влиять на ход событий.

Качество: HDTVRip
Формат: AVI
Видео кодек: XviD
Аудио кодек: AC3
Видео: Xvid 720x400, 24.00fps, 1 450 Kbps
Аудио: Dolby AC3, 44100Hz, stereo, 192kbps
Релиз от: qqss44

Код:

Внимание! Раздача ведётся путём добавления новых серий; при каждом добавлении создаётся новый торрент. Чтобы начать докачку новой серии, пользователям необходимо сделать следующее:
(1) остановить скачивание,
(2) удалить старый торрент у себя из клиента (старые серии удалять не надо),
(3) скачать новый торрент и запустить его у себя в клиенте вместо старого, при этом указать клиенту путь в старую папку куда и должно происходить скачивание новых серий.
Ваш клиент при этом должен произвести хеширование (проверку) старой папки (если не производит сам - помогите ему сделать это), и будет докачивать только те серии которых у вас ещё нет. Старые серии при этом не удаляются, а продолжают раздаваться!
Eсли вы уже удалили старые серии, то предотвратить повторную закачку старых серий можно, отжав галочку в соответсвующих местах при запуске нового торрента. По возможности, желательно не удалять старые серии как можно дольше чтобы релизёр не столько продолжал раздавать старые серии, а смог сконцентрироваться на новых.


01. Not Exactly... / Не совсем ...
02. Whoever He Is / Кем бы он ни был
03. This Is Real / Это реально
04. Who Are You? / Кто ты?
05. I Gotta Go / Я должен идти
06. Who You With? / Ты с кем?
07. Loyalty / Лояльность
08. Best Laid Plans





General
Complete name : H:\11 03 2014\Power.(S01).Amedia\Power.S01E01.XviD.Amedia.[qqss44].avi
Format : AVI
Format/Info : Audio Video Interleave
File size : 685 MiB
Duration : 57mn 58s
Overall bit rate : 1 651 Kbps
Writing application : VirtualDubMod 1.5.10.3 | (build 2550/release)
Writing library : VirtualDubMod build 2550/release

Video
ID : 0
Format : MPEG-4 Visual
Format profile : Advanced Simple@L5
Format settings, BVOP : 2
Format settings, QPel : No
Format settings, GMC : No warppoints
Format settings, Matrix : Default (H.263)
Codec ID : XVID
Codec ID/Hint : XviD
Duration : 57mn 58s
Bit rate : 1 450 Kbps
Width : 720 pixels
Height : 400 pixels
Display aspect ratio : 16:9
Frame rate : 24.000 fps
Color space : YUV
Chroma subsampling : 4:2:0
Bit depth : 8 bits
Scan type : Progressive
Compression mode : Lossy
Bits/(Pixel*Frame) : 0.210
Stream size : 601 MiB (88%)
Writing library : XviD 73

Audio
ID : 1
Format : AC-3
Format/Info : Audio Coding 3
Mode extension : CM (complete main)
Codec ID : 2000
Duration : 57mn 58s
Bit rate mode : Constant
Bit rate : 192 Kbps
Channel(s) : 2 channels
Channel positions : Front: L R
Sampling rate : 44.1 KHz
Bit depth : 16 bits
Compression mode : Lossy
Stream size : 79.6 MiB (12%)
Alignment : Split accross interleaves
Interleave, duration : 42 ms (1.00 video frame)
Interleave, preload duration : 500 ms

pb.wtf



Скачать Влacть в ночном городе через торрент http://pic.kartinco.top/images/6/m5qvr.jpg Скачать фильм Влacть в ночном городе через торрент бесплантно в хорошем качестве Описание: Заработав немало денег на нелегальной торговле наркотиками, хозяин ночного клуба планирует легализировать свой капитал. Он хочет ... 9.4 10 24
Торрент: Зарегистрирован [2014-08-09 19:23] · скачан: 519 раз
Статус: √ проверено
Размер: 5.14 GB
Как cкачать? Как скачать Влacть в ночном городе через торрент | qTorrent

28-11-2019 20:33  

Отключить всю рекламу на сайте

09-08-2014 19:24 Влacть в ночном городе Скачать торрент  

Добавлена 8 серия,обновляемся!pb.wtf



26-02-2015 04:07 Влacть в ночном городе Скачать торрент  

Раздайте сегодня ночью, пожалуйста.pb.wtf



    Дорогой пользователь! Огромная просьба, поблагодарите релизера, оцените раздачу и оставьте свои комментарий, если Вы скачали Влacть в ночном городе через торрент бесплатно! Внесите свою лепту в развитие PiratBit!
    Комментировать посты могут только пользователи прошедшие не сложную регистрацию
    Показать сообщения:    

    Влacть в ночном городе через торрент
    Скачать бесплатно Влacть в ночном городе
    Влacть в ночном городе скачать торрент
    Влacть в ночном городе смотреть онлайн
    Cкачать фильм Влacть в ночном городе бесплатно
    Влacть в ночном городе скачать торрент в хорошем качестве
    Влacть в ночном городе смотреть онлайн бесплатно в хорошем качестве


    Вы не можете начинать темы
    Вы не можете отвечать на сообщения
    Вы не можете редактировать свои сообщения
    Вы не можете удалять свои сообщения
    Вы не можете голосовать в опросах
    Вы не можете прикреплять файлы к сообщениям
    Вы можете скачивать файлы