Ссылка на приватное зеркало нашего сайта всего за 1$. Внимание количество ограничено!!!

2 сезон

iTunes

1 сезон

1

iTunes

iTunes

iTunes

1 сезон

RePack

30

ИГРА 18+

pack

ВАЖНО

!!Акция!!

Alien_RageХит недели

RePack

MK11
pack

Забери бонус

RePack

jed

!!Акция!!

Alien_Rage

RePack

fifa19

RePack

Assassins Creed: Odyssey

RePack

NEED FOR SPEED™ PAYBACK

4 сезон

9 сезон

Бесстыжие 9 сезон

Все сериалы

все сериалы на PB.wtf

RePack

FAR CRY 5
  

Ветреная женщина / Сезон: 1 / Серии 1-12 из 12 (Ольга Перуновская) [2014, Россия, Украина, мелодрама, SATRip) pb.wtf

Ветреная женщина через торрент pb.wtf

Размер: 5.89 GB | Добавлен: 6 лет 2 мес. назад | Торрент скачан:232 раза
Скачать  

29-07-2014 08:40 Ветреная женщина Скачать торрент  

Ветреная женщина


  • Год выпуска: 2014
  • Страна: Россия, Украина
  • Жанр: мелодрама
  • Продолжительность: ~00:44:20 (Серия)
  • Перевод: Не требуется

  • Режиссер: Ольга Перуновская
  • В ролях:

    Кирилл Жандаров (Никита Горелов), Валерия Ходос, Ольга Лукьяненко, Алексей Янин, Анатолий Хостикоев, Яна Глущенко, Алексей Тритенко, Владимир Беляев, Тимофей Трибунцев, Виктор Сарайкин, Виталий Салий, Михаил Жонин

  • Описание:
    У молодого предпринимателя Никиты Горелова жизнь складывается, как нельзя лучше: отличная работа, карьерный рост, хорошая квартира, новая машина, да в придачу любимая женщина Светлана – дочь его крёстного. Дело идет к свадьбе, и будущий тесть, который по совместительству является ещё и начальником Никиты, поддерживает его буквально во всем. Вот только всё это счастье оказывается на поверку хрупким и эфемерным, когда Никита встречает на своём пути "ветреную" и непутёвую, но искреннюю и такую настоящую Лию.
    Любовь неизбежна, но принесёт ли она счастье?
  • Рейтинг:



  • Качество: SATRip
  • Формат: :AVI
  • Видео кодек: XviD
  • Аудио кодек: MP3
  • Видео: 720x368 (1.957), 1399 kbps, 25 fps, 0,211 bpp
  • Аудио: 2.0 / 48 kHz / 192 kbps
  • Релиз от: GEKADOL

    Код:

    Внимание! Раздача ведётся путём добавления новых серий; при каждом добавлении создаётся новый торрент. Чтобы начать докачку новой серии, пользователям необходимо сделать следующее:
    (1) остановить скачивание,
    (2) удалить старый торрент у себя из клиента (старые серии удалять не надо),
    (3) скачать новый торрент и запустить его у себя в клиенте вместо старого, при этом указать клиенту путь в старую папку куда и должно происходить скачивание новых серий.
    Ваш клиент при этом должен произвести хеширование (проверку) старой папки (если не производит сам - помогите ему сделать это), и будет докачивать только те серии которых у вас ещё нет. Старые серии при этом не удаляются, а продолжают раздаваться!
    Eсли вы уже удалили старые серии, то предотвратить повторную закачку старых серий можно, отжав галочку в соответсвующих местах при запуске нового торрента. По возможности, желательно не удалять старые серии как можно дольше чтобы релизёр не столько продолжал раздавать старые серии, а смог сконцентрироваться на новых.


    Код:

    General
    Complete name                            : D:\Фильмы\Ветреная женщина (2014)\Ветреная женщина.(03.seriya).2014.XviD.SATRip.by.simka.avi
    Format                                   : AVI
    Format/Info                              : Audio Video Interleave
    File size                                : 508 MiB
    Duration                                 : 44mn 20s
    Overall bit rate                         : 1 602 Kbps
    Writing application                      : VirtualDubMod 1.5.10.3 | www.virtualdub-fr.org || (build 2550/release)
    Writing library                          : VirtualDubMod build 2550/release

    Video
    ID                                       : 0
    Format                                   : MPEG-4 Visual
    Format profile                           : Advanced Simple@L5
    Format settings, BVOP                    : 1
    Format settings, QPel                    : No
    Format settings, GMC                     : No warppoints
    Format settings, Matrix                  : Default (MPEG)
    Codec ID                                 : XVID
    Codec ID/Hint                            : XviD
    Duration                                 : 44mn 20s
    Bit rate                                 : 1 400 Kbps
    Width                                    : 720 pixels
    Height                                   : 368 pixels
    Display aspect ratio                     : 1.957
    Frame rate                               : 25.000 fps
    Color space                              : YUV
    Chroma subsampling                       : 4:2:0
    Bit depth                                : 8 bits
    Scan type                                : Progressive
    Compression mode                         : Lossy
    Bits/(Pixel*Frame)                       : 0.211
    Stream size                              : 444 MiB (87%)
    Writing library                          : XviD 1.2.1 (UTC 2008-12-04)

    Audio
    ID                                       : 1
    Format                                   : MPEG Audio
    Format version                           : Version 1
    Format profile                           : Layer 3
    Mode                                     : Joint stereo
    Mode extension                           : MS Stereo
    Codec ID                                 : 55
    Codec ID/Hint                            : MP3
    Duration                                 : 44mn 20s
    Bit rate mode                            : Constant
    Bit rate                                 : 192 Kbps
    Channel(s)                               : 2 channels
    Sampling rate                            : 48.0 KHz
    Compression mode                         : Lossy
    Stream size                              : 60.9 MiB (12%)
    Alignment                                : Aligned on interleaves
    Interleave, duration                     : 40 ms (1.00 video frame)
    Interleave, preload duration             : 504 ms
    Writing library                          : LAME3.99r
    Encoding settings                        : -m j -V 4 -q 2 -lowpass 18.6 -b 192


    Скриншоты:
    скриншот   скриншот   скриншот   скриншот   скриншот   скриншот   скриншот   скриншот   скриншот   скриншот  

    Раздача ведётся путём добавления новых серий. Добавлена 12 серия (01.08.2014).Просьба перекачать торрент файл.

    pb.wtf



  • Скачать Ветреная женщина через торрент http://i66.fastpic.ru/big/2014/0729/84/ace809f059dd3200158c8b236ecb9c84.jpg Скачать фильм Ветреная женщина через торрент бесплантно в хорошем качестве Описание: У молодого предпринимателя Никиты Горелова жизнь складывается, как нельзя лучше: отличная работа, карьерный рост, хорошая ... 9.4 10 7
    Info! Золотая раздача, скачанное не засчитывается.
    Торрент: Зарегистрирован [2014-08-01 06:28] · скачан: 232 раз
    Статус: √ проверено
    Размер: 5.89 GB
    Как cкачать? Как скачать Ветреная женщина через торрент | qTorrent

    28-11-2019 20:33  

    Отключить всю рекламу на сайте

      Дорогой пользователь! Огромная просьба, поблагодарите релизера, оцените раздачу и оставьте свои комментарий, если Вы скачали Ветреная женщина через торрент бесплатно! Внесите свою лепту в развитие PiratBit!
      Комментировать посты могут только пользователи прошедшие не сложную регистрацию
      Показать сообщения:    

      Ветреная женщина через торрент
      Скачать бесплатно Ветреная женщина
      Ветреная женщина скачать торрент
      Ветреная женщина смотреть онлайн
      Cкачать фильм Ветреная женщина бесплатно
      Ветреная женщина скачать торрент в хорошем качестве
      Ветреная женщина смотреть онлайн бесплатно в хорошем качестве


      Вы не можете начинать темы
      Вы не можете отвечать на сообщения
      Вы не можете редактировать свои сообщения
      Вы не можете удалять свои сообщения
      Вы не можете голосовать в опросах
      Вы не можете прикреплять файлы к сообщениям
      Вы можете скачивать файлы