новый адрес
Ссылка на приватное зеркало всего за 1$. Внимание количество ограничено!!!

iTunes

1+1

iTunes

мы

iTunes

1

iTunes

Чернобыль

iTunes

Ральф против интернета

Лицензия

ПШазам

Лицензия

Оно 2

Лицензия

30
pack

Вам бонус

ВАЖНО

!!Акция!!

Alien_RageХит недели

RePack

Resident Evil 21

ИГРА 18+

pack

RePack

jed

!!Акция!!

Alien_Rage

RePack

fifa19

RePack

Assassins Creed: Odyssey

RePack

NEED FOR SPEED™ PAYBACK

3 сезон

9 сезон

Бесстыжие 9 сезон

Все сериалы

все сериалы на PB.wtf

RePack

FAR CRY 5
Ребята, катастрофически не хватает 1900р. для оплаты серверов за Октябрь (всвязи с блокировками трафик упал в 3 раза), 1-2р., выручайте.
  

Художник и натурщица / El artista y la modelo (Фернандо Труэба / Fernando Trueba) [2012, Испания, Франция, драма, HDRip, Любительский (одноголосый) pb.wtf

Художник и натурщица через торрент pb.wtf

Размер: 1.46 GB | Добавлен: 5 лет 4 мес. назад | Торрент скачан:200 раз
Скачать  

29-07-2014 11:29 Художник и натурщица Скачать торрент  

Художник и натурщица / El artista y la modelo


Год выпуска: 2012
Страна: Испания, Франция
Жанр:драма
Продолжительность:01:45:09
Перевод:Любительский (одноголосый)[PashaUP]
Режиссер:Фернандо Труэба / Fernando Trueba

  • В ролях:

    Жан Рошфор (Marc Cros), Аида Фольч (Mercè), Клаудия Кардинале (Léa), Чус Лампреаве (María), Гёц Отто (Werner), Кристиан Синниже (Emile), Martin Gamet (Pierre), Mateo Deluz (Henri), Simon Guilbert (Cura), Alain Torrent (Campesino mercado), Michel Jaquesmin (Patrón café), Dorian Astrou (Niños)

  • Описание:
    Франция, 1943 год. Недалеко от испанской границы живет скульптор Марк Крос. Он разочаровался в человечестве и давно потерял интерес к творчеству. Однажды на улице жена Кроса обращает внимание на юную беженку-испанку. Супруги предлагают Мерседес убежище. А коль скоро девушка живет в мастерской, пожилой скульптор просит Мерседес стать моделью для его последней работы.

  • Мировая премьера:23 сентября 2012


      Качество: HDRip
      Формат:AVI
      Видео кодек: XviD
      Аудио кодек:AC3
      Видео: 720x304 (2.35:1), 1523 kbps, 23,976 fps
      Аудио: 5.1/ 48 kHz/ 448 kbps/ AC3


    Код:

    General
    Complete name                            : D:\Торенты\The.Artist.And.The.Model.2012_(PashaUP).avi
    Format                                   : AVI
    Format/Info                              : Audio Video Interleave
    File size                                : 1.46 GiB
    Duration                                 : 1h 45mn
    Overall bit rate                         : 1 981 Kbps
    Writing application                      : VirtualDubMod 1.5.10.2 (build 2540/release)
    Writing library                          : VirtualDubMod build 2540/release

    Video
    ID                                       : 0
    Format                                   : MPEG-4 Visual
    Format profile                           : Advanced Simple@L5
    Format settings, BVOP                    : 1
    Format settings, QPel                    : No
    Format settings, GMC                     : No warppoints
    Format settings, Matrix                  : Custom
    Codec ID                                 : XVID
    Codec ID/Hint                            : XviD
    Duration                                 : 1h 45mn
    Bit rate                                 : 1 524 Kbps
    Width                                    : 720 pixels
    Height                                   : 304 pixels
    Display aspect ratio                     : 2.35:1
    Frame rate                               : 23.976 fps
    Color space                              : YUV
    Chroma subsampling                       : 4:2:0
    Bit depth                                : 8 bits
    Scan type                                : Progressive
    Compression mode                         : Lossy
    Bits/(Pixel*Frame)                       : 0.290
    Stream size                              : 1.12 GiB (77%)
    Writing library                          : XviD 73

    Audio
    ID                                       : 1
    Format                                   : AC-3
    Format/Info                              : Audio Coding 3
    Mode extension                           : CM (complete main)
    Codec ID                                 : 2000
    Duration                                 : 1h 45mn
    Bit rate mode                            : Constant
    Bit rate                                 : 448 Kbps
    Channel(s)                               : 6 channels
    Channel positions                        : Front: L C R, Side: L R, LFE
    Sampling rate                            : 48.0 KHz
    Bit depth                                : 16 bits
    Compression mode                         : Lossy
    Stream size                              : 337 MiB (23%)
    Alignment                                : Split accross interleaves
    Interleave, duration                     : 42 ms (1.00 video frame)
    Interleave, preload duration             : 500 ms

    Скриншоты:

    Каталог Новинок (Фильмы-трейлеры, Игры, Сериалы, Мультфильмы)

    © Оформление by Raven
    pb.wtf



  • Скачать Художник и натурщица через торрент http://pic.kartinco.top/new/img/2014-07/29/3gq0v6a13ng16dvbf5rwsc06k.jpg Скачать фильм Художник и натурщица через торрент бесплантно в хорошем качестве Описание:Франция, 1943 год. Недалеко от испанской границы живет скульптор Марк Крос. Он разочаровался в человечестве и давно потерял ... 9.2 10 9
    Торрент: Зарегистрирован [2014-07-29 11:29] · скачан: 200 раз
    Статус: √ проверено
    Размер: 1.46 GB
    Как cкачать? Как скачать Художник и натурщица через торрент | qTorrent

    Отключить всю рекламу на сайте
      Дорогой пользователь! Огромная просьба, поблагодарите релизера, оцените раздачу и оставьте свои комментарий, если Вы скачали Художник и натурщица через торрент бесплатно! Внесите свою лепту в развитие PiratBit!
      Комментировать посты могут только пользователи прошедшие не сложную регистрацию
      Показать сообщения:    

      Художник и натурщица через торрент
      Скачать бесплатно Художник и натурщица
      Художник и натурщица скачать торрент
      Художник и натурщица смотреть онлайн
      Cкачать фильм Художник и натурщица бесплатно
      Художник и натурщица скачать торрент в хорошем качестве
      Художник и натурщица смотреть онлайн бесплатно в хорошем качестве


      Вы не можете начинать темы
      Вы не можете отвечать на сообщения
      Вы не можете редактировать свои сообщения
      Вы не можете удалять свои сообщения
      Вы не можете голосовать в опросах
      Вы не можете прикреплять файлы к сообщениям
      Вы можете скачивать файлы