Anonymous, добрый вечер, присоединяйтесь к нам в Telegram!, здесь всегда актуальный адрес сайта, оперативная поддержка и многое другое!

>

5.6

iTunes

7.4

MVO

5.7

MVO

1

7.7

1 сезон

6.8

iTunes

7.3

1 сезон

13

6.7

1 сезон

8.3

RePack

30

ULTIMATE

pack

9.9

Лицензия

ВАЖНО

ИГРА 18+

pack

7.3

RePack

MK11

7.7

RePack

jed

7.8

RePack

fifa19

8.5

RePack

RDR2

RePack

NEED FOR SPEED™ PAYBACK

4 сезон

9 сезон

Бесстыжие 9 сезон

Все сериалы

все сериалы на PB.wtf

RePack

FAR CRY 5

Anonymous, добрый вечер, мы катастрофически не успеваем собрать деньги на оплату серверов, помогите нам пожалуйста 5,10,15р., для нас важна любая помощь . В качестве благодарности мы отключим Вам всю рекламу на сайте (укажите свой ник в строку Ваше имя)!

×
  
Magnet ссылка

Чужие / Aliens (Ридли Скотт, Джеймс Кэмерон, Дэвид Финчер, Жан-Пьер Жёне ) [1979, 1986, 1992, 1997 г., ужасы, BDRip 720p / 60 fps / Theatrical cut / Квадрология pb.wtf

Чужие через торрент pb.wtf

Размер: 21.15 GB | Добавлен: 7 лет 2 мес. назад | Торрент скачан:552 раза
Смотреть онлайн Чужие | Скачать    Ребята, помогите собрать деньги на оплату серверов!!!

29-07-2014 15:51 Чужие Скачать торрент  

Чужой / Alien
«В космосе твой крик никто не услышит...»

Год выпуска: 1979
Страна: США, Великобритания
Жанр:ужасы, фантастика
Продолжительность: 01:56:38
Перевод:Дубляж
Язык субтитров: Русский (полные), Английский (полные)
Вид субтитров: Вшитые, Отключаемые
Режиссер:Ридли Скотт / Ridley Scott

  • В ролях:

    Сигурни Уивер (Ripley), Том Скеррит (Dallas), Иэн Холм (Ash), Джон Хёрт (Kane), Гарри Дин Стэнтон (Brett), Вероника Картрайт (Lambert), Яфет Котто (Parker), Боладжи Бадеджо (Alien), Хелен Хортон (Mother, озвучка), Эдди Пауэлл (Alien, в титрах не указан)

  • Описание:
    В далеком будущем возвращающийся на Землю грузовой космический корабль перехватывает исходящий с неизвестной планеты неопознанный сигнал. Экипаж принимает решение совершить посадку и разобраться, в чем дело. Оказавшись на планете, астронавты повсюду обнаруживают неопознанные предметы, по виду напоминающие гигантские коконы...

  • Мировая премьера:25 мая 1979


      Качество: BDRip 720p
      Формат:MKV
      Видео кодек: AVC
      Аудио кодек:AC3
      Видео: ~4132 kb/s / 1280*544 / 59,880 кадров/сек
      Аудио 1 Русский: AC3 5.1, 640 kb/s, 48,0 КГц Дубляж BD CEE
      Аудио 2 Английский: AC3 5.1, 640 kb/s 48,0 КГц


    Код:

    Общее
    Уникальный идентификатор : 245544381771622928750273500081387104521 (0xB8BA20B46BB5897696E7C0788E166909)
    Полное имя : A:720p 60fpsЧужой 720p 60fpsЧужой 1 720p 60fps.mkv
    Формат : Matroska
    Версия формата : Version 4 / Version 2
    Размер файла : 4,50 Гбайт
    Продолжительность : 1 ч. 56 м.
    Общий поток : 5522 Кбит/сек
    Дата кодирования : UTC 2014-07-24 22:55:30
    Программа кодирования : mkvmerge v6.9.1 ('Blue Panther') 64bit built on Apr 18 2014 18:23:38
    Библиотека кодирования : libebml v1.3.0 + libmatroska v1.4.1
    Обложка : Yes

    Видео
    Идентификатор : 1
    Формат : AVC
    Формат/Информация : Advanced Video Codec
    Профиль формата : High@L4.1
    Параметр CABAC формата : Да
    Параметр ReFrames формата : 9 кадров
    Идентификатор кодека : V_MPEG4/ISO/AVC
    Продолжительность : 1 ч. 56 м.
    Битрейт : 4132 Кбит/сек
    Ширина : 1280 пикселей
    Высота : 544 пикселя
    Соотношение сторон : 2,35:1
    Режим частоты кадров : Постоянный
    Частота кадров : 59,880 кадров/сек
    Частота кадров в оригинале : 59,940 кадров/сек
    Цветовое пространство : YUV
    Субдискретизация насыщенности : 4:2:0
    Битовая глубина : 8 бит
    Тип развёртки : Прогрессивная
    Бит/(Пиксели*Кадры) : 0.099
    Размер потока : 3,37 Гбайт (75%)
    Библиотека кодирования : x264 core 130 r2273 b3065e6
    Настройки программы : cabac=1 / ref=9 / deblock=1:-1:-1 / analyse=0x3:0 / me=umh / subme=9 / psy=1 / psy_rd=1.00:0.10 / mixed_ref=1 / me_range=42 / chroma_me=0 / trellis=2 / 8x8dct=1 / cqm=0 / deadzone=21,11 / fast_pskip=0 / chroma_qp_offset=-3 / threads=12 / lookahead_threads=1 / sliced_threads=0 / nr=0 / decimate=0 / interlaced=0 / bluray_compat=0 / constrained_intra=0 / bframes=6 / b_pyramid=2 / b_adapt=2 / b_bias=0 / direct=1 / weightb=1 / open_gop=0 / weightp=2 / keyint=594 / keyint_min=59 / scenecut=40 / intra_refresh=0 / rc=crf / mbtree=0 / crf=16.0 / qcomp=0.60 / qpmin=0 / qpmax=69 / qpstep=4 / ip_ratio=1.40 / pb_ratio=1.30 / aq=0
    Язык : English
    Default : Да
    Forced : Нет

    Аудио #1
    Идентификатор : 2
    Формат : AC-3
    Формат/Информация : Audio Coding 3
    Расширение режима : CM (complete main)
    Параметр Endianness формата : Big
    Идентификатор кодека : A_AC3
    Продолжительность : 1 ч. 56 м.
    Вид битрейта : Постоянный
    Битрейт : 640 Кбит/сек
    Каналы : 6 каналов
    Расположение каналов : Front: L C R, Side: L R, LFE
    Частота : 48,0 КГц
    Битовая глубина : 16 бит
    Метод сжатия : С потерями
    Размер потока : 534 Мбайт (12%)
    Заголовок : Dub
    Язык : Russian
    Default : Да
    Forced : Нет

    Аудио #2
    Идентификатор : 3
    Формат : AC-3
    Формат/Информация : Audio Coding 3
    Расширение режима : CM (complete main)
    Параметр Endianness формата : Big
    Идентификатор кодека : A_AC3
    Продолжительность : 1 ч. 56 м.
    Вид битрейта : Постоянный
    Битрейт : 640 Кбит/сек
    Каналы : 6 каналов
    Расположение каналов : Front: L C R, Side: L R, LFE
    Частота : 48,0 КГц
    Битовая глубина : 16 бит
    Метод сжатия : С потерями
    Размер потока : 534 Мбайт (12%)
    Заголовок : Original
    Язык : English
    Default : Нет
    Forced : Нет

    Текст #1
    Идентификатор : 4
    Формат : UTF-8
    Идентификатор кодека : S_TEXT/UTF8
    Идентификатор кодека/Информация : UTF-8 Plain Text
    Заголовок : Full
    Язык : Russian
    Default : Нет
    Forced : Нет

    Текст #2
    Идентификатор : 5
    Формат : UTF-8
    Идентификатор кодека : S_TEXT/UTF8
    Идентификатор кодека/Информация : UTF-8 Plain Text
    Заголовок : Full
    Язык : English
    Default : Нет
    Forced : Нет

    Меню
    00:00:00.000 : en:Main Titles
    00:02:01.121 : en:Awakenings
    00:09:17.223 : en:Nostromo Re-Routed
    00:12:47.141 : en:Answering the Call
    00:18:36.949 : en:Walking Distance
    00:21:53.687 : en:Proceeding Blindly
    00:23:53.974 : en:Dark Horizons
    00:26:50.608 : en:A Word of Warning
    00:31:06.781 : en:Kane's Descent
    00:34:47.502 : en:Surface Tension
    00:39:14.268 : en:Acid
    00:42:06.899 : en:Standard Procedure
    00:46:25.282 : en:The Missing Guest
    00:50:55.468 : en:Long Journey Ahead
    00:53:35.837 : en:The Last Supper
    00:58:26.127 : en:On the Hunt
    01:03:32.475 : en:"Here Jonesy"
    01:08:07.499 : en:"What Are My Chances?"
    01:11:01.173 : en:Into the Air Ducts
    01:14:09.611 : en:The Third Junction
    01:15:51.129 : en:"No Blood, No Dallas"
    01:18:37.212 : en:Special Order
    01:24:10.128 : en:"Crew Expendable"
    01:28:24.006 : en:Escape Plan
    01:30:54.323 : en:"Kitty, Kitty, Kitty"
    01:32:53.484 : en:Cornered
    01:34:44.511 : en:Auto-Destruct Initiated
    01:36:28.615 : en:Override Failed
    01:39:27.544 : en:Narcissus Escape
    01:44:15.957 : en:Survivors
    01:47:05.668 : en:"You Are My Lucky Star"
    01:53:53.075 : en:End Credits

    Скриншоты:

    Каталог Новинок (Фильмы-трейлеры, Игры, Сериалы, Мультфильмы)

    © Оформление by Raven
  • Чужие / Aliens
    «В некоторых местах Вселенной вы не одиноки...»

    Год выпуска: 1986
    Страна: США, Великобритания
    Жанр:ужасы, фантастика, боевик, триллер, приключения
    Продолжительность:02:17:14
    Перевод:Дубляж
    Язык субтитров: Русский (полные), Английский (полные)
    Вид субтитров: Вшитые, Отключаемые
    Режиссер:Джеймс Кэмерон / James Cameron

  • В ролях:

    Сигурни Уивер (Ellen Ripley), Майкл Бин (Cpl. Dwayne Hicks), Кэрри Хенн (Rebecca «Newt» Jorden), Пол Райзер (Carter Burke), Лэнс Хенриксен (Bishop), Билл Пэкстон (Pvt. Hudson), Дженетт Голдстин (Pvt. Vasquez), Уильям Хоуп (Lt. Gorman), Эл Мэтьюз (Sgt. Apone), Марк Ролстон (Pvt. Drake), Рикко Росс (Pvt. Frost), Колетт Хиллер (Cpl. Ferro)

  • Описание:
    Чужой - совершенный организм. Идеальная машина для убийства, чье физическое превосходство сочетается с его феноменальной жаждой уничтожения. Офицер Элен Рипли и команда космического корабля Ностромо один раз уже встретилась с такой тварью. В живых осталась только Элен.
    Капсула с Элен найдена спасателями после многих лет блуждания в космосе. Ей сообщают, что планета L.V. 426 колонизирована, и ей придется вернуться туда, где начался ее кошмар, ибо связь с колонистами прервалась. И вот в составе группы космического десанта Рипли отправляется на проклятую планету. Но теперь их там поджидает не один Чужой, а тысячи. Кто сможет выжить в этой войне: чудовища, способные только убивать, или люди, способные мыслить?

  • Мировая премьера:18 июля 1986


      Качество: BDRip 720p
      Формат:MKV
      Видео кодек: AVC
      Аудио кодек:AC3
      Видео: , ~5348 kb/s / 1280*688 / 59,880 кадров/сек
      Аудио 1 Русский: AC3 5.1, 640 kb/s, 48,0 КГц Дубляж BD CEE
      Аудио 2 Английский: AC3 5.1, 640 kb/s 48,0 КГц


    Код:

    Общее
    Уникальный идентификатор : 215509132578885118111793324291282988528 (0xA2218C968D9DD84392530673F4B86DF0)
    Полное имя : A:720p 60fpsЧужой 720p 60fpsЧужой 2 720p 60fps.mkv
    Формат : Matroska
    Версия формата : Version 4 / Version 2
    Размер файла : 6,48 Гбайт
    Продолжительность : 2 ч. 17 м.
    Общий поток : 6763 Кбит/сек
    Дата кодирования : UTC 2014-07-24 23:14:03
    Программа кодирования : mkvmerge v6.9.1 ('Blue Panther') 64bit built on Apr 18 2014 18:23:38
    Библиотека кодирования : libebml v1.3.0 + libmatroska v1.4.1
    Обложка : Yes

    Видео
    Идентификатор : 1
    Формат : AVC
    Формат/Информация : Advanced Video Codec
    Профиль формата : High@L4.1
    Параметр CABAC формата : Да
    Параметр ReFrames формата : 9 кадров
    Идентификатор кодека : V_MPEG4/ISO/AVC
    Продолжительность : 2 ч. 17 м.
    Битрейт : 5348 Кбит/сек
    Ширина : 1280 пикселей
    Высота : 688 пикселей
    Соотношение сторон : 1,85:1
    Режим частоты кадров : Постоянный
    Частота кадров : 59,880 кадров/сек
    Частота кадров в оригинале : 59,940 кадров/сек
    Цветовое пространство : YUV
    Субдискретизация насыщенности : 4:2:0
    Битовая глубина : 8 бит
    Тип развёртки : Прогрессивная
    Бит/(Пиксели*Кадры) : 0.101
    Размер потока : 5,13 Гбайт (79%)
    Библиотека кодирования : x264 core 130 r2273 b3065e6
    Настройки программы : cabac=1 / ref=9 / deblock=1:-1:-1 / analyse=0x3:0 / me=umh / subme=9 / psy=1 / psy_rd=1.00:0.10 / mixed_ref=1 / me_range=42 / chroma_me=0 / trellis=2 / 8x8dct=1 / cqm=0 / deadzone=21,11 / fast_pskip=0 / chroma_qp_offset=-3 / threads=12 / lookahead_threads=1 / sliced_threads=0 / nr=0 / decimate=0 / interlaced=0 / bluray_compat=0 / constrained_intra=0 / bframes=6 / b_pyramid=2 / b_adapt=2 / b_bias=0 / direct=1 / weightb=1 / open_gop=0 / weightp=2 / keyint=594 / keyint_min=59 / scenecut=40 / intra_refresh=0 / rc=crf / mbtree=0 / crf=18.0 / qcomp=0.60 / qpmin=0 / qpmax=69 / qpstep=4 / ip_ratio=1.40 / pb_ratio=1.30 / aq=0
    Язык : English
    Default : Да
    Forced : Нет

    Аудио #1
    Идентификатор : 2
    Формат : AC-3
    Формат/Информация : Audio Coding 3
    Расширение режима : CM (complete main)
    Параметр Endianness формата : Big
    Идентификатор кодека : A_AC3
    Продолжительность : 2 ч. 17 м.
    Вид битрейта : Постоянный
    Битрейт : 640 Кбит/сек
    Каналы : 6 каналов
    Расположение каналов : Front: L C R, Side: L R, LFE
    Частота : 48,0 КГц
    Битовая глубина : 16 бит
    Метод сжатия : С потерями
    Размер потока : 628 Мбайт (9%)
    Заголовок : Dub
    Язык : Russian
    Default : Да
    Forced : Нет

    Аудио #2
    Идентификатор : 3
    Формат : AC-3
    Формат/Информация : Audio Coding 3
    Расширение режима : CM (complete main)
    Параметр Endianness формата : Big
    Идентификатор кодека : A_AC3
    Продолжительность : 2 ч. 17 м.
    Вид битрейта : Постоянный
    Битрейт : 640 Кбит/сек
    Каналы : 6 каналов
    Расположение каналов : Front: L C R, Side: L R, LFE
    Частота : 48,0 КГц
    Битовая глубина : 16 бит
    Метод сжатия : С потерями
    Размер потока : 628 Мбайт (9%)
    Заголовок : Original
    Язык : English
    Default : Нет
    Forced : Нет

    Текст #1
    Идентификатор : 4
    Формат : UTF-8
    Идентификатор кодека : S_TEXT/UTF8
    Идентификатор кодека/Информация : UTF-8 Plain Text
    Заголовок : Full
    Язык : Russian
    Default : Нет
    Forced : Нет

    Текст #2
    Идентификатор : 5
    Формат : UTF-8
    Идентификатор кодека : S_TEXT/UTF8
    Идентификатор кодека/Информация : UTF-8 Plain Text
    Заголовок : Full
    Язык : English
    Default : Нет
    Forced : Нет

    Меню
    00:00:00.000 : en:Human Salvage (Main Titles)
    00:05:15.732 : en:57 Years
    00:08:52.406 : en:Inquest
    00:12:33.377 : en:Home Alone
    00:15:38.687 : en:Ripley's Decision
    00:17:17.870 : en:Sulaco
    00:23:07.010 : en:Briefing
    00:28:16.653 : en:Express Elevator to Hell
    00:35:08.648 : en:Arrival
    00:42:33.384 : en:Lab Secimens
    00:43:54.423 : en:Movement
    00:52:01.284 : en:Rescue Mission
    00:57:56.306 : en:Cocoons
    01:00:37.300 : en:The Battle
    01:04:08.177 : en:Ripley's Rescue
    01:08:05.080 : en:Altercation
    01:11:02.508 : en:Stranded
    01:14:01.270 : en:Barricade
    01:17:54.294 : en:A Mother's Love
    01:20:47.717 : en:Speculation
    01:23:21.579 : en:Bad News
    01:28:35.643 : en:Dreamland
    01:30:22.291 : en:Not a Dream
    01:36:05.134 : en:"Game Time"
    01:45:17.102 : en:Little Girl Lost
    01:49:00.784 : en:Ripley's Promise
    01:51:50.662 : en:Reluctant Solider
    01:55:48.524 : en:The Nest
    02:04:15.656 : en:It's Over
    02:06:03.806 : en:Final Confrontation
    02:13:03.099 : en:Dreams
    02:14:23.471 : en:End Titles

    Скриншоты:

    Каталог Новинок (Фильмы-трейлеры, Игры, Сериалы, Мультфильмы)

    © Оформление by Raven
  • Чужой 3 / Alien³
    «Снова началось...»

    Год выпуска: 1992
    Страна: США
    Жанр:ужасы, фантастика, боевик, триллер
    Продолжительность: 01:54:52
    Перевод:Дубляж
    Язык субтитров: Русский (полные), Английский (полные)
    Режиссер:Дэвид Финчер / David Fincher

  • В ролях:

    Сигурни Уивер (Ellen Ripley), Чарльз С. Даттон (Dillon), Чарльз Дэнс (Clemens), Пол МакГанн (Golic), Брайан Гловер (Andrews), Ральф Браун (Aaron), Дэниэл Уэбб (Morse), Кристофер Джон Филдс (Rains), Холт МакКэллани (Junior), Лэнс Хенриксен (Bishop II), Кристофер Фэйрбэнк (Murphy), Карл Чейз (Frank)

  • Описание:
    После бегства с планеты «Чужих» космический корабль Рипли терпит катастрофу вблизи так называемой планеты - тюрьмы, места, где отсиживают свой срок убийцы, насильники и прочие отбросы общества. Вместе с Рипли на эту планету попадает зародыш чужого, который и был причиной гибели корабля. Довольно быстро он превращается в гигантскую, зубастую тварь и начинает свое темное дело.
    Его жертвами становятся десятки безоружных заключенных. Кровь брызжет фонтаном, куски человеческого мяса разлетаются во все стороны. И кажется, что остановить эту машину смерти не сможет никто, никто кроме отважной, но увы не бессмертной девушки по имени Рипли.

  • Мировая премьера:22 мая 1992


      Качество: BDRip 720p
      Формат:MKV
      Видео кодек: AVC
      Аудио кодек:AC3
      Видео: ~5050 kb/s / 1280*544 / 59,940 кадров/сек
      Аудио 1 Русский: AC3 5.1, 640 kb/s, 48,0 КГц Дубляж BD CEE
      Аудио 2 Английский: AC3 5.1, 640 kb/s 48,0 КГц



    Код:

    Общее
    Уникальный идентификатор : 243297686083548927751675223352109212376 (0xB7096E0E1CDC3D23B29B7D863E40A2D8)
    Полное имя : A:720p 60fpsЧужой 720p 60fpsЧужой 3 720p 60fps.mkv
    Формат : Matroska
    Версия формата : Version 4 / Version 2
    Размер файла : 5,18 Гбайт
    Продолжительность : 1 ч. 54 м.
    Общий поток : 6459 Кбит/сек
    Дата кодирования : UTC 2014-07-24 23:30:13
    Программа кодирования : mkvmerge v6.9.1 ('Blue Panther') 64bit built on Apr 18 2014 18:23:38
    Библиотека кодирования : libebml v1.3.0 + libmatroska v1.4.1
    Обложка : Yes

    Видео
    Идентификатор : 1
    Формат : AVC
    Формат/Информация : Advanced Video Codec
    Профиль формата : High@L4.1
    Параметр CABAC формата : Да
    Параметр ReFrames формата : 9 кадров
    Идентификатор кодека : V_MPEG4/ISO/AVC
    Продолжительность : 1 ч. 54 м.
    Битрейт : 5050 Кбит/сек
    Ширина : 1280 пикселей
    Высота : 544 пикселя
    Соотношение сторон : 2,35:1
    Режим частоты кадров : Постоянный
    Частота кадров : 59,880 кадров/сек
    Частота кадров в оригинале : 59,940 кадров/сек
    Цветовое пространство : YUV
    Субдискретизация насыщенности : 4:2:0
    Битовая глубина : 8 бит
    Тип развёртки : Прогрессивная
    Бит/(Пиксели*Кадры) : 0.121
    Размер потока : 4,05 Гбайт (78%)
    Библиотека кодирования : x264 core 130 r2273 b3065e6
    Настройки программы : cabac=1 / ref=9 / deblock=1:-1:-1 / analyse=0x3:0 / me=umh / subme=9 / psy=1 / psy_rd=1.00:0.10 / mixed_ref=1 / me_range=42 / chroma_me=0 / trellis=2 / 8x8dct=1 / cqm=0 / deadzone=21,11 / fast_pskip=0 / chroma_qp_offset=-3 / threads=12 / lookahead_threads=1 / sliced_threads=0 / nr=0 / decimate=0 / interlaced=0 / bluray_compat=0 / constrained_intra=0 / bframes=6 / b_pyramid=2 / b_adapt=2 / b_bias=0 / direct=1 / weightb=1 / open_gop=0 / weightp=2 / keyint=594 / keyint_min=59 / scenecut=40 / intra_refresh=0 / rc=crf / mbtree=0 / crf=14.0 / qcomp=0.60 / qpmin=0 / qpmax=69 / qpstep=4 / ip_ratio=1.40 / pb_ratio=1.30 / aq=0
    Язык : English
    Default : Да
    Forced : Нет

    Аудио #1
    Идентификатор : 2
    Формат : AC-3
    Формат/Информация : Audio Coding 3
    Расширение режима : CM (complete main)
    Параметр Endianness формата : Big
    Идентификатор кодека : A_AC3
    Продолжительность : 1 ч. 54 м.
    Вид битрейта : Постоянный
    Битрейт : 640 Кбит/сек
    Каналы : 6 каналов
    Расположение каналов : Front: L C R, Side: L R, LFE
    Частота : 48,0 КГц
    Битовая глубина : 16 бит
    Метод сжатия : С потерями
    Размер потока : 526 Мбайт (10%)
    Заголовок : Dub
    Язык : Russian
    Default : Да
    Forced : Нет

    Аудио #2
    Идентификатор : 3
    Формат : AC-3
    Формат/Информация : Audio Coding 3
    Расширение режима : CM (complete main)
    Параметр Endianness формата : Big
    Идентификатор кодека : A_AC3
    Продолжительность : 1 ч. 54 м.
    Вид битрейта : Постоянный
    Битрейт : 640 Кбит/сек
    Каналы : 6 каналов
    Расположение каналов : Front: L C R, Side: L R, LFE
    Частота : 48,0 КГц
    Битовая глубина : 16 бит
    Метод сжатия : С потерями
    Размер потока : 526 Мбайт (10%)
    Заголовок : Original
    Язык : English
    Default : Нет
    Forced : Нет

    Текст #1
    Идентификатор : 4
    Формат : UTF-8
    Идентификатор кодека : S_TEXT/UTF8
    Идентификатор кодека/Информация : UTF-8 Plain Text
    Заголовок : Full
    Язык : Russian
    Default : Нет
    Forced : Нет

    Текст #2
    Идентификатор : 5
    Формат : UTF-8
    Идентификатор кодека : S_TEXT/UTF8
    Идентификатор кодека/Информация : UTF-8 Plain Text
    Заголовок : Full
    Язык : English
    Default : Нет
    Forced : Нет

    Меню
    00:00:00.000 : en:Main Titles
    00:03:42.972 : en:Crash Landing
    00:04:45.994 : en:One Survivor?
    00:07:34.745 : en:The Facts
    00:09:33.948 : en:The Sleeper Awakens
    00:11:48.290 : en:Inspecting the Ship
    00:14:43.632 : en:A Possible Contagion
    00:21:52.310 : en:A New Beginning
    00:26:22.789 : en:New Temptation
    00:30:19.984 : en:Diced
    00:35:41.639 : en:The Flight Recorder
    00:37:40.800 : en:High Priority
    00:39:02.298 : en:A Re-Education
    00:41:33.824 : en:A Candlelight Dinner
    00:45:12.459 : en:Bishop Speaks
    00:48:13.348 : en:Discussing the Dragon
    00:51:31.504 : en:A Long Sad Story
    00:55:57.520 : en:"It's Here"
    00:58:25.501 : en:Who's in Charge?
    01:01:04.202 : en:The Plan
    01:05:00.479 : en:Wait for the Signal
    01:09:35.754 : en:Under the Scanner
    01:12:41.690 : en:A Classified Code
    01:15:43.622 : en:In the Basement
    01:19:03.613 : en:It Has to Die
    01:22:14.721 : en:Plan B
    01:27:15.104 : en:It Started
    01:35:59.586 : en:Ripley & The Beast
    01:38:42.416 : en:In the Mold
    01:41:23.410 : en:Time for a Cold Shower
    01:43:16.148 : en:Never Trust a Bishop
    01:49:09.751 : en:End Titles

    Скриншоты:

    Каталог Новинок (Фильмы-трейлеры, Игры, Сериалы, Мультфильмы)

    © Оформление by Raven
  • Чужой 4: Воскрешение / Alien: Resurrection
    «Главное - спастись...»

    Год выпуска: 1997
    Страна: США
    Жанр:ужасы, фантастика, боевик, триллер
    Продолжительность:01:48:48
    Перевод:Дубляж
    Язык субтитров: Русский (полные), Английский (полные)
    Вид субтитров: Вшитые, Отключаемые
    Режиссер:Жан-Пьер Жёне / Jean-Pierre Jeunet

  • В ролях:

    Сигурни Уивер (Ellen Ripley), Вайнона Райдер (Annalee Call), Доминик Пинон (Vriess), Рон Перлман (Johner), Гари Дурдан (Christie), Майкл Уинкотт (Frank Elgyn), Дж.Э. Фримен (Dr. Mason Wren), Лиленд Орсер (Larry Purvis), Брэд Дуриф (Dr. Jonathan Gediman), Дэн Хедайя (Gen. Martin Perez), Ким Флауэрс (Sabra Hillard), Рэймонд Крус (Vincent Distephano)

  • Описание:
    Спустя двести лет после событий, произошедших на планете-тюрьме, группа ученых, опекаемых военным командованием, клонирует Эллен Рипли, чтобы с ее помощью заполучить детеныша инопланетного монстра. Вскоре он уже сам начинает плодиться, производя на свет новую породу - помесь кровожадного пришельца и... человека.

  • Мировая премьера:6 ноября 1997


      Качество: BDRip 720p
      Формат:MKV
      Видео кодек: AVC
      Аудио кодек:AC3
      Видео: ~5156 kb/s / 1280*544 / 59,940 кадров/сек
      Аудио 1 Русский: AC3 5.1, 640 kb/s, 48,0 КГц Дубляж BD CEE
      Аудио 2 Английский: AC3 5.1, 640 kb/s 48,0 КГц



    Код:

    Общее
    Уникальный идентификатор : 233155167796996277937059679101388778672 (0xAF680D4B9ACF55519F9AE6D2AAEEECB0)
    Полное имя : A:720p 60fpsЧужой 720p 60fpsЧужой 4 720p 60fps.mkv
    Формат : Matroska
    Версия формата : Version 4 / Version 2
    Размер файла : 4,99 Гбайт
    Продолжительность : 1 ч. 48 м.
    Общий поток : 6567 Кбит/сек
    Дата кодирования : UTC 2014-07-25 12:12:33
    Программа кодирования : mkvmerge v6.9.1 ('Blue Panther') 64bit built on Apr 18 2014 18:23:38
    Библиотека кодирования : libebml v1.3.0 + libmatroska v1.4.1
    Обложка : Yes

    Видео
    Идентификатор : 1
    Формат : AVC
    Формат/Информация : Advanced Video Codec
    Профиль формата : High@L4.1
    Параметр CABAC формата : Да
    Параметр ReFrames формата : 9 кадров
    Идентификатор кодека : V_MPEG4/ISO/AVC
    Продолжительность : 1 ч. 48 м.
    Битрейт : 5156 Кбит/сек
    Ширина : 1280 пикселей
    Высота : 544 пикселя
    Соотношение сторон : 2,35:1
    Режим частоты кадров : Постоянный
    Частота кадров : 59,880 кадров/сек
    Частота кадров в оригинале : 59,940 кадров/сек
    Цветовое пространство : YUV
    Субдискретизация насыщенности : 4:2:0
    Битовая глубина : 8 бит
    Тип развёртки : Прогрессивная
    Бит/(Пиксели*Кадры) : 0.124
    Размер потока : 3,92 Гбайт (79%)
    Библиотека кодирования : x264 core 130 r2273 b3065e6
    Настройки программы : cabac=1 / ref=9 / deblock=1:-1:-1 / analyse=0x3:0 / me=umh / subme=9 / psy=1 / psy_rd=1.00:0.10 / mixed_ref=1 / me_range=42 / chroma_me=0 / trellis=2 / 8x8dct=1 / cqm=0 / deadzone=21,11 / fast_pskip=0 / chroma_qp_offset=-3 / threads=12 / lookahead_threads=1 / sliced_threads=0 / nr=0 / decimate=0 / interlaced=0 / bluray_compat=0 / constrained_intra=0 / bframes=6 / b_pyramid=2 / b_adapt=2 / b_bias=0 / direct=1 / weightb=1 / open_gop=0 / weightp=2 / keyint=594 / keyint_min=59 / scenecut=40 / intra_refresh=0 / rc=crf / mbtree=0 / crf=16.0 / qcomp=0.60 / qpmin=0 / qpmax=69 / qpstep=4 / ip_ratio=1.40 / pb_ratio=1.30 / aq=0
    Язык : English
    Default : Да
    Forced : Нет

    Аудио #1
    Идентификатор : 2
    Формат : AC-3
    Формат/Информация : Audio Coding 3
    Расширение режима : CM (complete main)
    Параметр Endianness формата : Big
    Идентификатор кодека : A_AC3
    Продолжительность : 1 ч. 48 м.
    Вид битрейта : Постоянный
    Битрейт : 640 Кбит/сек
    Каналы : 6 каналов
    Расположение каналов : Front: L C R, Side: L R, LFE
    Частота : 48,0 КГц
    Битовая глубина : 16 бит
    Метод сжатия : С потерями
    Размер потока : 498 Мбайт (10%)
    Заголовок : Dub
    Язык : Russian
    Default : Да
    Forced : Нет

    Аудио #2
    Идентификатор : 3
    Формат : AC-3
    Формат/Информация : Audio Coding 3
    Расширение режима : CM (complete main)
    Параметр Endianness формата : Big
    Идентификатор кодека : A_AC3
    Продолжительность : 1 ч. 48 м.
    Вид битрейта : Постоянный
    Битрейт : 640 Кбит/сек
    Каналы : 6 каналов
    Расположение каналов : Front: L C R, Side: L R, LFE
    Частота : 48,0 КГц
    Битовая глубина : 16 бит
    Метод сжатия : С потерями
    Размер потока : 498 Мбайт (10%)
    Заголовок : Original
    Язык : English
    Default : Нет
    Forced : Нет

    Текст #1
    Идентификатор : 4
    Формат : UTF-8
    Идентификатор кодека : S_TEXT/UTF8
    Идентификатор кодека/Информация : UTF-8 Plain Text
    Заголовок : Full
    Язык : Russian
    Default : Нет
    Forced : Нет

    Текст #2
    Идентификатор : 5
    Формат : UTF-8
    Идентификатор кодека : S_TEXT/UTF8
    Идентификатор кодека/Информация : UTF-8 Plain Text
    Заголовок : Full
    Язык : English
    Default : Нет
    Forced : Нет

    Меню
    00:00:00.000 : en:Main Titles
    00:02:27.313 : en:USM Auriga
    00:05:16.983 : en:Born Again
    00:07:36.122 : en:An Unexpected Benefit
    00:10:26.250 : en:Memories
    00:13:08.078 : en:The Cargo Arrives
    00:18:06.168 : en:The Deal
    00:21:49.474 : en:A Little One-on-One
    00:25:38.244 : en:Today's Lesson
    00:28:38.591 : en:Snooping Around
    00:32:46.172 : en:Caught
    00:34:56.219 : en:The Escape
    00:38:06.158 : en:"Evacuation"
    00:42:00.142 : en:"Evacuation Incomplete"
    00:49:04.858 : en:Finding a Way Out
    00:52:34.442 : en:A Waste of Ammo
    00:58:31.132 : en:"He's Got One Inside of Him"
    01:02:46.095 : en:A Trap
    01:13:56.056 : en:Call's Secret
    01:16:26.206 : en:Connecting at the Chapel
    01:21:15.829 : en:Into the Nest
    01:24:40.575 : en:Sharing the Monster
    01:27:09.932 : en:A New Baby
    01:31:52.798 : en:Racing to the Betty
    01:33:39.947 : en:Closing the Hatch
    01:36:44.256 : en:Under Pressure
    01:40:46.707 : en:"I'm a Stranger Here Myself"
    01:42:27.975 : en:End Titles

    Скриншоты:

    Каталог Новинок (Фильмы-трейлеры, Игры, Сериалы, Мультфильмы)

    © Оформление by Raven
  • pb.wtf



    Скачать Чужие через торрент https://pic.kartinco.top/new/img/2014-07/29/2ypud25the9qnz1vkb0f7q6hz.jpg Скачать, смотреть онлайн Чужие бесплантно в хорошем качестве Описание:В далеком будущем возвращающийся на Землю грузовой космический корабль перехватывает исходящий с неизвестной планеты неопознанный ... 9.8 10 37
    Info! Золотая раздача, скачанное не засчитывается.
    Торрент: Зарегистрирован [2014-07-29 16:18] · скачан: 552 раз
    Статус: √ проверено
    Размер: 21.15 GB
    Как cкачать? Как скачать Чужие через торрент | UTorrent

    % Раздел Тема Автор DL S | L
    Сборники и Сиквелы (48-60 fps) [ 31.1 GB ] Чужие / Aliens [1979 1986 1992 1997 BDRip 1080p / 60 fps / Theatrical cut / Квадрология СидБот60fps Скачать
    1 | 0


    Последний раз редактировалось: Ворон (2014-09-19 16:32), всего редактировалось 1 раз

    28-11-2019 20:33  

    Отключить всю рекламу на сайте

    29-07-2014 16:18 Чужие Скачать торрент  

    Внимание!
    Перед скачиванием обязательно проверьте Сэмплы на своем оборудовании.pb.wtf



    29-07-2014 17:00 Чужие Скачать торрент  

    то что надо релиз супер pb.wtf



    29-07-2014 18:02 Чужие Скачать торрент  

    Фанат чужих, по любом скачаю)pb.wtf



    29-07-2014 18:21 Чужие Скачать торрент  

    Спасибоpb.wtf



    29-07-2014 18:34 Чужие Скачать торрент  

    Да ну,как на ускоренной перемотке смотришь...А фильмы хорошие.pb.wtf



    30-07-2014 05:42 Чужие Скачать торрент  

    Спасибо, отличный релиз! pb.wtf



    30-07-2014 07:57 Чужие Скачать торрент  

    народ навалите скорости а то пипец как улитка!!!!pb.wtf



    30-07-2014 07:57 Чужие Скачать торрент  

    скорости плзpb.wtf



    15-08-2014 20:37 Чужие Скачать торрент  

    Billi2010 писал(а):

    Да ну,как на ускоренной перемотке смотришь...А фильмы хорошие.

    Это 60 кадров, просто все движения и эффекты очень подробно показываются. Мне наоборот смотрится как бы реалистичнейpb.wtf



    30-12-2014 11:09 Чужие Скачать торрент  

    Вопрос, у меня каждые 5-10 минут звук начинает отставать от видео, небольшой рассинхрон, приходится перемотать назад либо вперед на пару сек - после этого нормально, в чем причина? ПС: это впервые такая фигня, только на этих видеоpb.wtf



    30-12-2014 12:09 Чужие Скачать торрент  

    Kонь, Попробуй плеер другой. У меня в кмр похожее было, но не с этими рипами, вообще.pb.wtf



      Дорогой пользователь! Огромная просьба, поблагодарите релизера, оцените раздачу и оставьте свои комментарий, если Вы скачали Чужие через торрент бесплатно!
      Комментировать посты могут только пользователи прошедшие не сложную регистрацию
      Показать сообщения:    

      Чужие через торрент
      Скачать бесплатно Чужие
      Чужие скачать торрент
      Чужие смотреть онлайн
      Cкачать фильм Чужие бесплатно
      Чужие скачать торрент в хорошем качестве
      Чужие смотреть онлайн бесплатно в хорошем качестве


      Вы не можете начинать темы
      Вы не можете отвечать на сообщения
      Вы не можете редактировать свои сообщения
      Вы не можете удалять свои сообщения
      Вы не можете голосовать в опросах
      Вы не можете прикреплять файлы к сообщениям
      Вы можете скачивать файлы